<?xml version="1.0" standalone="no"?>
<!DOCTYPE svg PUBLIC "-//W3C//DTD SVG 1.1//EN" "http://www.w3.org/Graphics/SVG/1.1/DTD/svg11.dtd">
<svg xmlns="http://www.w3.org/2000/svg">
<metadata>Generated by Fontastic.me</metadata>
<defs>
<font id="untitled-font-1" horiz-adv-x="512">
<font-face font-family="untitled-font-1" units-per-em="512" ascent="480" descent="-32"/>
<missing-glyph horiz-adv-x="512" />

<glyph unicode="&#97;" d="m422 204c0 0 0 1 0 1l0 0l-88 51l89 51l0 0c4 3 6 10 3 14c0 0 0 1 0 1l0 0l-28 49l0 0c-3 4-9 6-14 3l0 0l-89-51l0 103l0 0c0 6-5 10-11 10c0 0 0 0 0 0l0 0l-56 0l0 0c-6 0-10-5-10-10l0 0l0-103l-90 52l0 0c-5 2-11 1-14-4c0 0 0-1 0-1l0 0l-28-49l0 0c-3-4-1-10 4-13l0 0l0 0c0 0 0 0 0 0c0 0 0-1 0-1l89-51l-87-50c-1-1-2-1-2-1c-5-3-7-9-4-14l0 0l29-51l0 0c3-4 9-5 13-2c0 0 0 0 0 0l1 0l89 51l0-100c-1-1-1-2-1-3c0-5 5-10 10-10l0 0l59 0l0 0c5 1 8 5 8 10c0 0 0 0 0 0l1 0l0 103l87-50c0-1 1-1 2-1c4-3 11-2 14 3l0 0l28 49c0 0 0 0 0 0c0 0 0 0 0 0l1 2l0 0c1 5 0 10-5 12z"/>
<glyph unicode="&#98;" d="m350 445l-188 0c-8 0-15-7-15-16l0-351c0-6 5-11 11-11c3 0 6 1 8 3l0 0l82 83l1 0c1 2 4 3 7 3c3 0 6-1 8-3l0 0l81-82c2-2 5-4 9-4c6 0 11 5 11 11l0 351c0 9-7 16-15 16z"/>
<glyph unicode="&#99;" d="m453 256c0 5-2 9-5 11l0 0l-48 28l28 47l0 1c1 3 1 8-1 12c-2 4-6 6-10 7l0 0l-56 0l0 55l0 0c0 4-3 8-6 10c-4 2-9 2-13 1l0 0l-48-28l-27 46l0 0c-3 4-7 6-11 6c-5 0-9-2-11-6l-1 0l-27-47l-47 27l0 0c-4 2-8 2-12-1c-4-2-7-6-7-10l0 0l0-55l-55 0l0 0c-4 0-8-2-10-6c-2-4-2-9-1-13l0 0l27-46l-48-28l0 0c-3-3-5-7-5-11c0-5 2-9 5-11l0 0l48-28l-28-48l0 0c-1-3-1-8 1-12c2-4 6-6 11-7l0 0l55 0l0-55l0 0c0-4 3-8 6-10c4-2 9-2 13-1l0 0l48 28l27-46l0 0c3-4 7-6 11-6c5 0 9 2 11 6l1 0l27 47l47-27l0 0c4-2 8-2 12 1c4 2 7 6 7 10l0 0l0 55l55 0l0 0c4 0 8 2 10 6c2 4 2 9 1 13l0 0l-27 46l48 28l0 0c3 3 5 7 5 11z"/>
<glyph unicode="&#100;" d="m451 357l-66 66c-3 2-6 4-9 4c-3 0-7-2-9-4l-176-176l-46 47c-5 5-13 5-18 0l-66-66c-2-3-3-6-3-9c0-3 1-7 3-9l121-121c3-2 6-4 9-4c0 0 0 1 0 1c1 0 1-1 1-1c3 0 6 2 9 4l250 250c5 5 5 13 0 18z"/>
<glyph unicode="&#101;" d="m403 123l-15 8c-1 0-3 0-3-1l-6-12c-1 0-1-1-1-1c1-1 1-1 2-2l15-8c0 0 0 0 1 0c1 0 1 0 2 1l6 12c0 0 0 1 0 1c0 1-1 1-1 2z m0 269l-15 9c-1 0-2 0-3-1l-7-11c0-1 0-1 0-2c0 0 1-1 1-1l15-9c1 0 1-1 2-1c0 0 1 1 2 2l6 11c0 0 0 1 0 1c0 1 0 1-1 2z m-30-253l-17 9l0 252l8-5c0-1 1-1 1-1c1 0 2 1 2 1l7 12c0 0 0 1 0 1c0 1-1 1-1 2l-7 3l-7 5c-3 2-6 1-9-1l-62-34l-62 34c0 0 0 0 0 0c0 0 0 1-1 1c0 0-1 0-2 0c0 0-1 0-2 0c-1 0-1 0-2 0c-1 0-1 0-2 0c0 0 0-1 0-1c0 0 0 0-1 0l-62-34l-62 34c-3 2-7 2-9 1c-3-2-5-4-5-7l0-274c0-3 2-5 4-6l67-37c0 0 0 0 0 0c1 0 1 0 1 0c1-1 3-1 4-1c2 0 3 0 4 1c0 0 1 0 1 0c0 0 0 0 0 0l62 34l63-34c0 0 0 0 0 0c0 0 0 0 0 0c1-1 3-1 4-1c2 0 3 0 5 1c0 0 0 0 0 0c0 0 0 0 0 0l62 34l5-2l4-3c1 0 1 0 1 0c1 0 2 1 2 1l7 12c0 1 0 2-1 3z m-219-29l-58 31l0 256l58-31z m134 0l-67 36l0 256l67-36z m144 114l-13 0c-1 0-2-1-2-3l0-27c0-1 1-2 2-2l13 0c1 0 2 1 2 2l0 27c0 2-1 3-2 3z m0-108l-13 0c-1 0-1 0-1 0l-2-1c-1-1-1-1-1-1l-6-12c0 0-1-1 0-1c0-1 0-1 1-2l8-4c2-1 4-2 6-2c5 0 10 3 10 11l0 10c0 1-1 2-2 2z m-5 262l-8 5c-2 0-3 0-4-1l-6-11c0-1-1-1 0-2c0 0 0-1 1-1l7-4l0-8c0-1 1-2 2-2l13 0c1 0 2 1 2 2l0 10c0 8-6 11-7 12z m5-47l-13 0c-1 0-2-1-2-2l0-27c0-1 1-2 2-2l13 0c1 0 2 1 2 2l0 27c0 1-1 2-2 2z m0-161l-13 0c-1 0-2-1-2-2l0-27c0-2 1-3 2-3l13 0c1 0 2 1 2 3l0 27c0 1-1 2-2 2z m0 107l-13 0c-1 0-2-1-2-2l0-27c0-1 1-2 2-2l13 0c1 0 2 1 2 2l0 27c0 1-1 2-2 2z"/>
<glyph unicode="&#102;" d="m428 318l-167 129c-4 4-11 4-16 0l-161-129c-3-2-5-6-5-10l0-233c0-7 6-13 13-13l96 0c7 0 13 6 13 13l0 143l110 0l0-143c0-7 6-13 13-13l96 0c7 0 13 6 13 13l0 233c0 4-2 8-5 10z"/>
<glyph unicode="&#103;" d="m346 443c-36 0-69-17-90-44c-21 28-54 44-90 44c-63 0-114-51-114-114c-1-68 32-108 58-140l6-7c31-39 128-108 132-111c2-1 5-2 8-2c3 0 6 1 8 2c4 3 101 72 132 111l6 7c26 32 59 72 59 140c-1 63-52 114-115 114z"/>
<glyph unicode="&#104;" d="m277 446c-3 0-6-3-6-7c0 0 0 0 0-1l0 0l0-161c0-3 3-6 6-6l161 0l0 0c1 0 1 0 1 0c4 0 7 3 7 6c-1 93-76 168-169 169z m130-208c0 4-3 7-7 7l-148 0c-4 0-7 3-7 7l0 147l0 0c0 1 0 1 0 1c0 4-3 7-6 7c-1 0-1 0-1 0l0 0c0 0-1 0-2 0c-94 0-170-76-170-171c0-94 76-170 170-170c95 0 171 76 171 170c0 1 0 2 0 2c0 0 0 0 0 0z"/>
<glyph unicode="&#105;" d="m72 165l368 0c14 0 26 12 26 26l0 226c0 14-12 25-26 25l-368 0c-14 0-26-11-26-25l0-226c0-14 12-26 26-26z m25 226l318 0l0-175l-318 0z m391-251l-464 0c-7 0-12-5-12-12l0-28c0-3 1-6 3-8l17-18c2-3 5-4 9-4l429 0c3 0 6 1 9 3l17 18c3 3 4 6 4 9l0 28c0 7-5 12-12 12z m-188-41c0-1-1-3-2-3l-84 0c-1 0-2 2-2 3l0 12c0 1 1 2 2 2l84 0c1 0 2-1 2-2z"/>
<glyph unicode="&#106;" d="m403 403c-39 38-101 40-141 3l0 0l-52-51c-9-10-16-20-21-32c-10-4-20-10-28-18l0 1l-52-52c-40-40-40-105 0-145c40-40 105-40 145 0l52 52l-1 0c8 8 14 18 18 28c12 5 22 12 32 21l52 52l-1 0c37 40 35 102-3 141z m-184-257l0 0c-20-20-53-20-73 0c-20 20-20 53 0 73l38 38c4-17 13-33 26-47c14-13 30-22 47-26z m28 101c-9 9-14 21-15 33c12-1 24-6 33-15c9-9 14-21 15-33c-12 1-24 6-33 15z m122 49l-3-3l0 0l-38-38c-4 17-13 33-26 47c-14 13-30 22-47 26l38 38c0 0 0 0 0 0l0 0l3 3l0 0c21 17 51 16 70-3c19-19 20-49 3-70z"/>
<glyph unicode="&#107;" d="m256 459c-80 0-144-65-144-145c0-32 10-62 28-86l93-161c0-1 1-2 2-3l0 0l0 0c5-6 12-11 21-11c8 0 15 4 20 10l0-1l1 2c1 2 2 4 3 6l91 157c18 24 29 55 29 87c0 80-64 145-144 145z m-1-218c-40 0-72 32-72 71c0 40 32 71 72 71c39 0 71-31 71-71c0-39-32-71-71-71z"/>
<glyph unicode="&#108;" d="m140 366c-42 0-77-34-77-76c0-43 35-77 77-77c7 0 13 5 14 12l0 0l0 127c0 8-6 14-14 14z m309 62c0 8-7 14-14 14c-4 0-6-1-9-3l-122-70l-111 0c-7 0-14-6-14-14l0-132l1 0c0-7 6-13 13-13l98 0l134-77c3-2 6-4 10-4c7 0 14 7 14 14c0 1-1 1-1 2l1 0l0 283l0 0c0 0 0 0 0 0z m-161-323l0 0c0 0 0 0-1 0c0 0 0 1 0 1l-42 73l0 0c-3 3-6 5-10 6l0 0l-37 0l0 0c-2 0-4-1-6-2c-6-4-9-12-5-19c0-1 1-1 1-1l0-1l50-85c0 0 0 0 0 0c0 0 0 0 0 0l0-1l0 0c4-6 12-8 19-5c0 1 1 1 2 2l0 0l25 14l0 1c5 4 7 11 4 17z"/>
<glyph unicode="&#109;" d="m178 304c0 28-23 51-52 51c-28 0-51-23-51-51c0-29 23-52 51-52c29 0 52 23 52 52z m208 41c-29 0-52-23-52-52c0-28 23-51 52-51c28 0 51 23 51 51c0 29-23 52-51 52z m-48-109c-3 4-8 9-14 15c-16 20-40 33-68 33c-25 0-47-10-62-27c-9-8-17-15-22-21l-3-4c-16-20-36-43-35-84c0-37 30-68 68-68c21 0 40 10 53 27c13-17 32-27 54-27c37 0 68 31 68 68c0 41-20 64-35 84z m-21 138c0-31-26-57-57-57c-32 0-58 26-58 57c0 32 26 58 58 58c31 0 57-26 57-58z"/>
<glyph unicode="&#111;" d="m394 256c0 4-2 8-6 10l-252 146c-2 1-4 2-7 2c-6 0-11-5-11-12c0 0 0-1 0-1l0 0l0-293l0 0c1-5 5-10 11-10c2 0 4 1 6 2l0 0l253 146l0 0c4 2 6 6 6 10z"/>
<glyph unicode="&#112;" d="m447 142c-12 11-30 12-42 1l-46 46c13 19 20 42 20 67c0 25-7 48-20 67l46 46c12-11 30-11 41 1c12 12 12 31 1 42c-7 7-17 10-26 9c2 9-1 19-8 26c-12 12-31 12-43 0c-11-12-12-30-1-42l-46-46c-19 13-42 20-67 20c-25 0-48-7-67-20l-46 46c11 12 11 30-1 41c-12 12-31 12-42 1c-7-7-10-17-9-26c-9 2-19-1-26-8c-12-12-12-31 0-43c12-11 30-12 42-1l46-46c-13-19-20-42-20-67c0-25 7-48 20-67l-46-46c-12 11-30 11-41-1c-12-12-12-31-1-42c7-7 17-10 26-9c-2-9 1-19 8-26c12-12 31-12 43 0c11 12 12 30 1 42l44 45l0-31c19-15 43-24 69-24c26 0 50 9 69 24l0 31l44-45c-11-12-11-30 1-41c12-12 31-12 42-1c7 7 10 17 9 26c9-2 19 1 26 8c12 12 12 31 0 43z m-225 68c-13 0-23 11-23 23c0 13 10 24 23 24c13 0 24-11 24-24c0-12-11-23-24-23z m68 0c-13 0-24 10-24 23c0 13 11 24 24 24c13 0 23-11 23-24c0-13-10-23-23-23z"/>
<glyph unicode="&#113;" d="m434 274c26 2 44 13 50 29c-9-5-38-12-54-6c-1 4-2 8-2 11c-13 45-54 81-98 76c3 2 7 3 11 4c4 2 33 7 28 17c-4 9-38-7-45-9c9 3 23 9 25 19c-13-2-26-8-36-17c3 4 6 8 7 13c-35-22-56-67-73-111c-13 13-24 23-34 28c-29 16-64 32-119 52c-1-18 9-42 40-58c-7 1-19-1-29-3c4-21 17-38 52-46c-16-1-24-5-32-13c8-14 25-31 57-27c-35-16-14-44 15-40c-50-50-127-47-171-4c116-158 368-94 405 59c29-1 45 9 55 20c-16-2-39 0-52 6z"/>
<glyph unicode="&#114;" d="m280 451c16 20 44 34 67 35c3-27-8-54-24-73c-16-20-42-35-68-33c-3 27 10 54 25 71z m131-368c-19-28-39-56-70-57c-31 0-41 19-76 19c-35 0-46-18-75-19c-30-2-53 30-73 58c-39 57-69 162-29 232c20 35 56 57 95 58c30 0 58-20 76-20c18 0 52 25 88 21c15-1 57-6 84-46c-2-1-50-29-50-87c1-70 61-93 62-94c-1-1-10-33-32-65z"/>
<glyph unicode="&#116;" d="m195 397c0-11 0-63 0-63l-47 0l0-78l47 0l0-230l95 0l0 230l65 0c0 0 6 37 8 78c-8 0-72 0-72 0c0 0 0 45 0 53c0 8 10 19 21 19c10 0 31 0 52 0c0 10 0 47 0 80c-27 0-58 0-71 0c-100 0-98-77-98-89z"/>
<glyph unicode="&#117;" d="m486 256c0-57-46-102-103-102c-57 0-103 45-103 102c0 57 46 102 103 102c57 0 103-45 103-102z m-357 102c-57 0-103-45-103-102c0-57 46-102 103-102c57 0 103 45 103 102c0 57-46 102-103 102z"/>
<glyph unicode="&#118;" d="m362 435c6-14 10-36 4-53c24-20 32-69 21-109c33-3 73 1 99-9c-24 3-57 9-88 7c-6-1-15 0-15-8c37-3 73-6 102-16c-29 5-65 13-102 14c-15-30-45-45-87-48c4-10 13-14 15-29c3-24-5-59 3-74c4-8 10-8 14-15c-10-12-35 2-38 15c-5 22 7 56-6 71c1-24-6-58 1-80c2-8 10-11 8-19c-48-5-28 62-36 102c-7-1-4-11-4-16c0-38 8-91-34-86c-1 8 6 11 8 18c8 22-1 54 3 81c-16-12 1-54-9-76c-5-12-24-17-37-12c1 9 11 8 15 17c6 11 0 29 2 46c-29-6-52 1-63 19c-5 9-6 18-13 26c-5 7-15 8-18 18c36 9 38-37 71-38c10-1 15 2 24 5c3 11 8 20 16 26c-40 6-74 18-89 49c-37-2-71-7-102-15c28 11 63 14 101 16c-3 13-22 9-34 9c-22-1-51-4-68-7c25 9 62 8 96 8c-10 33-7 86 17 106c-7 17-5 44 4 57c26-1 42-12 58-23c20 5 42 8 69 7c12-1 24-6 33-5c9 1 18 10 26 14c11 5 21 7 33 7z"/>
<glyph unicode="&#119;" d="m407 486l-125 0c-32 0-73-4-108-33c-26-22-39-53-39-81c0-47 37-95 101-95c6 0 12 1 19 1c-3-7-6-13-6-23c0-19 10-30 18-41c-27-2-78-5-115-28c-36-21-47-52-47-74c0-45 42-86 130-86c104 0 159 57 159 114c0 42-24 62-50 85l-22 17c-7 5-16 12-16 26c0 13 9 21 17 29c25 20 51 41 51 86c0 46-29 70-43 82l37 0z m-53-370c0-37-31-65-89-65c-65 0-107 31-107 74c0 43 39 57 52 62c26 9 58 10 64 10c6 0 9 0 14-1c46-32 66-49 66-80z m-49 195c-9-10-26-17-41-17c-52 0-75 67-75 108c0 15 3 32 13 45c10 12 26 19 42 19c50 0 77-67 77-111c0-11-2-30-16-44z"/>
<glyph unicode="&#120;" d="m486 206l0-170l-98 0l0 159c0 40-15 67-50 67c-28 0-44-18-51-36c-3-7-3-15-3-24l0-166l-99 0c0 0 1 269 0 297l99 0l0-42c-1 0-1-1-1-1l1 0l0 1c13 20 36 49 89 49c65 0 113-43 113-134z m-404 270c-34 0-56-22-56-51c0-29 21-52 54-52l1 0c34 0 56 23 56 52c-1 29-22 51-55 51z m-51-440l99 0l0 297l-99 0z"/>
<glyph unicode="&#121;" d="m323 486l-202 0l-89-410l118 0l29 136l85 0c81 0 148 50 166 135c21 96-48 139-107 139z m-88-195l-39 0l25 112l58 0c20 0 35-12 40-29c-2 0-5 1-7 1l-58 0z m84 56c-7-31-36-55-65-56l14 61l52 0c0-1 0-3-1-5z m144-28c6 32 3 57-6 78c19-23 29-56 20-101c-19-85-86-134-167-134l-85 0l-29-136l-118 0l5 22l99 0l29 136l85 0c81 0 148 50 167 135z"/>
<glyph unicode="&#122;" d="m162 155c5 0 293 0 301 0c-35-73-106-122-186-129l-42 0c-25 2-50 8-73 19c0 3 0 105 0 110z m189 311c-30 13-62 20-95 20c-27 0-54-5-80-15c6-5 167-152 175-159c0 10 0 150 0 154z m-200-5c-77-40-125-118-125-205c0-20 3-40 8-60c6 5 200 182 204 185c-4 4-84 77-87 80z m-14-403c0 9 0 188 0 199c-7-7-92-84-95-87c19-46 52-86 95-112z m238 394c0-9 0-268 0-272c5 0 95 0 98 0c9 24 13 50 13 76c0 80-42 155-111 196z"/>
<glyph unicode="&#65;" d="m140 465c-59-24-100-69-111-130c-7-38-4-78 12-113c4-8 9-16 14-23c2-3 5-6 8-9c5 2 10 4 15 7c20 11 35 29 52 43c-57 67 4 149 80 167c70 17 166-12 188-85c9-30 3-63-22-85c-13-12-29-19-46-22c-10-2-21-2-31-1c-5 0-11 1-17 2c-9 3-17 2-17 13c0 26 0 53 0 79c0 13 0 27 0 40c0 8 0 7-6 7c-6 1-11 2-16 2c-19 1-39 2-57-1c-7-1-8 0-8-7c0-6 0-13 0-19c0-15 0-29 0-44c0-45 3-90 2-134c-1-13-1-45-16-52c-17-7-32 9-48 12c2-22-12-66 14-78c24-10 51-14 76-5c53 18 70 76 63 124c82-24 169 17 204 90c25 52 14 117-23 161c-70 84-211 100-310 61z"/>
<glyph unicode="&#66;" d="m130 130c11-11 18-26 18-43c0-17-7-32-18-43l0 0c-11-11-26-18-43-18c-17 0-32 7-43 18c-12 11-18 26-18 43c0 17 6 32 18 43l0 0c11 11 26 18 43 18c17 0 32-7 43-18z m0 0l0 0c0 0 0 0 0 0z m-86-86c0 0 0 0 0 0c0 0 0 0 0 0z m-18 286l0-88c57 0 111-23 152-64c41-40 63-95 63-152l0 0l0 0l89 0c0 83-34 159-90 214c-55 56-131 90-214 90z m0 156l0-88c205 0 372-167 372-372l88 0c0 127-51 242-135 325c-83 84-198 135-325 135z"/>
<glyph unicode="&#115;" d="m465 221c2 10 3 22 3 33c0 118-96 214-214 214c-11 0-22-1-33-3c-20 12-43 19-68 19c-71 0-129-57-129-129c0-25 7-48 19-68c-2-11-2-22-2-33c0-118 95-214 213-214c12 0 23 1 34 3c19-12 43-19 68-19c71 0 129 57 129 129c0 25-7 48-20 68z m-109-64c-9-13-23-23-40-31c-17-7-38-11-62-11c-28 0-52 5-70 15c-13 7-24 17-32 29c-9 12-13 24-13 36c0 6 3 12 8 17c5 5 12 7 19 7c7 0 12-2 16-5c5-4 9-10 12-17c3-8 7-15 11-21c4-5 10-10 18-14c7-3 17-5 30-5c17 0 31 4 41 11c11 7 16 16 16 27c0 9-3 15-8 21c-6 5-13 9-23 12c-9 3-21 6-36 9c-21 5-38 10-52 16c-14 6-26 15-34 25c-8 11-12 24-12 39c0 15 4 28 13 40c9 11 21 20 38 26c16 7 35 10 58 10c17 0 33-2 46-6c13-5 23-10 32-17c9-7 15-14 19-21c4-8 6-15 6-22c0-7-3-13-8-18c-5-6-11-8-19-8c-7 0-12 1-16 5c-3 3-7 8-11 15c-5 10-11 18-19 23c-7 6-18 8-34 8c-15 0-27-3-36-9c-9-6-13-13-13-21c0-5 1-9 4-13c3-4 7-7 13-10c5-3 11-5 16-6c6-2 15-4 28-7c16-4 31-8 44-12c13-4 24-9 34-15c9-7 16-14 22-24c5-9 7-21 7-34c0-17-4-31-13-44z"/>
<glyph unicode="&#67;" d="m296 110c-7 4-14 12-17 20c-3 7-3 23-3 49l0 119l108 0l0 82l-108 0l0 106l-66 0c-3-23-8-43-16-58c-8-16-18-29-31-40c-13-11-35-19-53-25l0-65l63 0l0-162c0-21 2-37 7-48c4-11 12-22 24-32c11-9 25-17 42-22c16-6 29-8 50-8c18 0 36 1 52 5c16 4 34 10 54 20l0 72c-23-15-47-22-70-22c-14 0-25 3-36 9z"/>
<glyph unicode="&#68;" d="m104 80c36 52 95 85 162 85c61 0 115-28 151-71c41 41 67 99 67 162c0 127-103 230-231 230c-127 0-230-103-230-230c0-70 32-133 81-176z m273 107c-4-8-10-9-17-6c-30 14-65 22-101 22c-37 0-72-8-103-23c-3-2-11-2-14 7c-3 10 2 15 5 17c34 16 72 25 112 25c40 0 78-8 111-25c5-2 10-10 7-17z m19 59c-2-4-6-6-10-6c-2 0-3 0-4 1c-37 16-79 26-123 26c-43 0-84-9-122-26c-1 0-2-1-4-1c-4 0-8 3-11 6l-2 8c0 3 2 7 5 9c41 19 86 29 134 29c48 0 94-10 135-29c3-2 5-6 5-9z m-288 93c47 19 98 29 151 29c54 0 104-10 151-29c6-3 10-9 10-17c0-10-8-19-19-19c-1 0-3 0-4 1c-43 17-89 26-138 26c-48 0-95-9-137-26c-1-1-3-1-4-1c-11 0-20 9-20 19c0 7 4 13 10 17z m158-250c-39 0-74-19-96-48c26-10 54-15 83-15c37 0 71 8 102 23c-22 25-54 40-89 40z"/>
<glyph unicode="&#69;" d="m419 456c-64 2-107-34-130-108c12 5 23 7 34 7c23 0 34-13 31-39c-1-16-12-39-31-70c-19-30-34-46-43-46c-13 0-24 24-34 71c-4 14-10 49-19 106c-8 52-30 77-66 73c-15-1-38-15-68-41c-22-20-45-40-67-60l21-28c21 14 33 22 36 22c16 0 31-25 45-75c12-46 25-91 37-137c19-50 41-75 68-75c44 0 97 41 159 123c61 78 92 139 94 184c3 60-19 91-67 93z"/>
<glyph unicode="&#70;" d="m24 154l-24-144c0-3 1-6 2-8c0 0 0 0 0 0c2-1 5-2 8-2l144 25c3 0 6 2 6 5c1 3 1 6-2 8l-28 29l76 75c3 4 3 9 0 12l-52 52c-3 4-9 4-12 0l-76-75l-28 28c-2 2-5 3-8 2c-3-1-5-4-6-7z m464 204l24 144c0 3-1 6-2 8c0 0 0 0 0 0c-2 1-5 2-8 2l-144-25c-3 0-6-2-6-5c-1-3-1-6 2-8l28-29l-76-75c-3-4-3-9 0-12l52-52c3-4 9-4 12 0l76 75l28-28c2-2 5-3 8-2c3 1 5 4 6 7z m-130-334l144-24c3 0 6 1 8 2c0 0 0 0 0 0c1 2 2 5 2 8l-25 144c0 3-2 6-5 6c-3 1-6 1-8-2l-29-28l-75 76c-4 3-9 3-12 0l-52-52c-4-3-4-9 0-12l75-76l-28-28c-2-2-3-5-2-8c1-3 4-5 7-6z m-204 464l-144 24c-3 0-6-1-8-2c0 0 0 0 0 0c-1-2-2-5-2-8l25-144c0-3 2-6 5-6c3-1 6-1 8 2l29 28l75-76c4-3 9-3 12 0l52 52c4 3 4 9 0 12l-75 76l28 28c2 2 3 5 2 8c-1 3-4 5-7 6z"/>
<glyph unicode="&#71;" d="m184 54l24 145c1 3 0 5-2 7c0 0 0 0 0 0c-2 2-5 3-7 3l-145-25c-3 0-5-2-6-5c-1-3 0-7 2-9l28-28l-76-76c-3-3-3-8 0-11l53-53c3-3 8-3 11 0l76 76l28-28c3-2 6-3 9-2c3 1 5 3 5 6z m144 404l-24-145c-1-3 0-5 2-7c0 0 0 0 0 0c2-2 5-3 7-3l145 25c3 0 5 2 6 5c1 3 0 7-2 9l-28 28l76 76c3 3 3 8 0 11l-53 53c-3 3-8 3-11 0l-76-76l-28 28c-3 2-6 3-9 2c-3-1-5-3-5-6z m130-274l-145 24c-3 1-5 0-7-2c0 0 0 0 0 0c-2-2-3-5-3-7l25-145c0-3 2-5 5-6c3-1 7 0 9 2l28 28l76-76c3-3 8-3 11 0l53 53c3 3 3 8 0 11l-76 76l28 28c2 3 3 6 2 9c-1 3-3 5-6 5z m-404 144l145-24c3-1 5 0 7 2c0 0 0 0 0 0c2 2 3 5 3 7l-25 145c0 3-2 5-5 6c-3 1-6 0-9-2l-28-28l-76 76c-3 3-8 3-11 0l-53-53c-3-3-3-8 0-11l76-76l-28-28c-2-3-3-6-2-9c1-3 3-5 6-5z"/>
<glyph unicode="&#72;" d="m201 59l26 158c0 3-1 6-3 8c0 0 0 0 0 0c-2 2-5 3-8 2l-157-26c-3-1-6-3-7-7c-1-3 0-6 2-9l31-30l-82-83c-4-3-4-9 0-13l56-56c4-4 10-4 13 0l83 82l30-31c3-2 6-3 9-2c4 1 6 4 7 7z m110 394l-26-158c0-3 1-6 3-8c0 0 0 0 0 0c2-2 5-3 8-2l157 26c3 1 6 3 7 7c1 3 0 6-2 9l-31 30l82 83c4 3 4 9 0 13l-56 56c-4 4-10 4-13 0l-83-82l-30 31c-3 2-6 3-9 2c-4-1-6-4-7-7z"/>
<glyph unicode="&#73;" d="m26 168l-26-158c0-2 1-5 3-7c0 0 0 0 0 0c2-2 5-3 7-3l158 27c3 0 6 3 7 6c1 3 0 7-3 9l-30 31l82 82c4 4 4 9 0 13l-57 57c-3 3-9 3-12 0l-83-83l-31 31c-2 2-5 3-9 2c-3-1-5-4-6-7z m460 176l26 158c0 2-1 5-3 7c0 0 0 0 0 0c-2 2-5 3-7 3l-158-27c-3 0-6-3-7-6c-1-3 0-6 3-9l30-31l-82-82c-4-4-4-9 0-13l57-57c3-3 9-3 12 0l83 83l31-31c2-2 5-3 9-2c3 1 5 4 6 7z"/>
<glyph unicode="&#74;" d="m448 256c0 106-86 192-192 192c-106 0-192-86-192-192c0-106 86-192 192-192c34 0 66 9 94 25c3 1 5 4 5 7c0 3-2 6-4 7l0 0l-34 21l0 0c-1 1-3 2-5 2c-1 0-2 0-3-1l0 0c-17-6-34-10-53-10c-78 0-141 63-141 141c0 78 63 141 141 141c73 0 134-56 140-128c0-51-22-80-39-80c-10 0-17 7-17 21c0 2 1 8 1 11l22 101l-1 0c0 1 1 1 1 2c0 3-3 6-7 6l-37 0c-4 0-6-2-7-5l0 0l-4-18c-9 17-28 30-56 30c-52 0-102-50-102-111c0-43 26-75 70-75c24 0 49 14 65 36l0-3c4-17 51-39 78-39c39 0 85 27 85 102l0 0c0 3 0 6 0 9z m-158-35c-10-14-26-30-50-30c-23 0-37 16-37 40c0 33 26 65 62 65c20 0 32-13 36-23z"/>
<glyph unicode="&#75;" d="m453 256c0 5-2 9-5 11l0 0l-48 28l28 47l0 1c1 3 1 8-1 12c-2 4-6 6-10 7l0 0l-56 0l0 55l0 0c0 4-3 8-6 10c-4 2-9 2-13 1l0 0l-48-28l-27 46l0 0c-3 4-7 6-11 6c-5 0-9-2-11-6l-1 0l-27-47l-47 27l0 0c-4 2-8 2-12-1c-4-2-7-6-7-10l0 0l0-55l-55 0l0 0c-4 0-8-2-10-6c-2-4-2-9-1-13l0 0l27-46l-48-28l0 0c-3-3-5-7-5-11c0-5 2-9 5-11l0 0l48-28l-28-48l0 0c-1-3-1-8 1-12c2-4 6-6 11-7l0 0l55 0l0-55l0 0c0-4 3-8 6-10c4-2 9-2 13-1l0 0l48 28l27-46l0 0c3-4 7-6 11-6c5 0 9 2 11 6l1 0l27 47l47-27l0 0c4-2 8-2 12 1c4 2 7 6 7 10l0 0l0 55l55 0l0 0c4 0 8 2 10 6c2 4 2 9 1 13l0 0l-27 46l48 28l0 0c3 3 5 7 5 11z m-229-58l-51 22l23-38l-13-8l-34 59l13 8l49-21l-22 37l13 7l34-59z m24 14l-34 59l41 24l7-11l-29-17l7-13l28 17l7-11l-29-17l8-13l29 17l6-11z m96 56l-33 34l13-46l-14-8l-51 49l14 8l36-36l-14 49l10 5l36-36l-15 49l15 8l17-69z"/>
<glyph unicode="&#76;" d="m305 239c0-27-22-48-49-48c-27 0-48 21-48 48c0 27 21 49 48 49c27 0 49-22 49-49z m139 149l0 0l-85 0l0 15c0 10-9 19-19 19l-168 0c-10 0-19-9-19-19l0-15l-85 0l0 0c-11 0-19-8-19-19l0-259c0-11 8-19 19-19l0-1l376 0l0 1c11 0 19 8 19 19l0 259c0 11-8 19-19 19z m-187-247c-54 0-98 44-98 98c0 55 44 99 98 99c55 0 99-44 99-99c0-54-44-98-99-98z m181 171l-76 0l0 51l76 0l0-51z"/>
<glyph unicode="&#77;" d="m389 149l-25 0l0 15c0 7 5 12 12 12l1 0c7 0 12-5 12-12z m-95 32c-6 0-12-4-12-10l0-71c0-5 6-10 12-10c6 0 12 5 12 10l0 71c0 6-6 10-12 10z m154 40l0-136c0-33-28-59-63-59l-258 0c-35 0-63 26-63 59l0 136c0 32 28 59 63 59l258 0c35 0 63-27 63-59z m-304-151l0 143l32 0l0 21l-85 1l0-21l26 0l0-144z m96 122l-27 0l0-76c0-12 1-17 0-19c-2-6-12-12-15-1c-1 2 0 8 0 19l-1 77l-26 0l0-76c0-11 0-20 0-24c1-7 0-15 7-20c12-8 35 2 41 14l0-16l21 0l0 122z m85-88l0 64c0 24-18 39-42 19l0 47l-27 0l0-163l22 1l2 10c28-26 46-8 45 22z m84 9l-20 0c0-1 0-2 0-3l0-11c0-6-5-11-11-11l-4 0c-6 0-11 5-11 11l0 29l46 0l0 17c0 13 0 26-1 33c-4 23-36 26-52 15c-5-4-9-9-11-15c-2-7-3-16-3-27l0-38c0-63 76-54 67 0z m-103 206c2-4 4-6 7-8c3-2 6-3 11-3c4 0 7 1 10 3c3 2 5 5 7 9l0-10l30 0l0 127l-24 0l0-99c0-5-4-10-10-10c-5 0-9 5-9 10l0 99l-25 0l0-86c0-11 0-18 1-22c0-3 1-7 2-10z m-90 71c0 12 1 22 3 29c2 7 6 12 11 16c5 4 12 6 20 6c7 0 13-1 18-4c5-2 9-6 11-10c3-4 5-9 6-13c1-5 1-12 1-21l0-32c0-12 0-20-1-26c-1-5-3-10-6-15c-3-5-7-8-11-11c-5-2-10-3-16-3c-7 0-13 1-18 3c-4 2-8 5-11 9c-2 4-4 8-5 14c-1 5-2 14-2 25l0 33z m23-50c0-7 6-13 12-13c7 0 12 6 12 13l0 67c0 8-5 13-12 13c-6 0-12-5-12-13z m-82-34l28 0l0 97l33 83l-30 0l-18-62l-18 62l-30 0l35-83z"/>
<glyph unicode="&#78;" d="m201 165c0-8-1-16-3-24c-3-8-7-15-13-22c-6-6-12-9-20-9c-8 0-15 3-21 9c-6 7-10 14-12 22c-3 8-4 16-4 24c0 7 1 15 4 23c2 8 6 15 12 22c6 6 13 9 21 9c8 0 14-3 20-9c6-7 10-14 13-22c2-8 3-16 3-23z m183 0c0-8-1-16-4-24c-2-8-6-15-12-22c-6-6-13-9-21-9c-8 0-14 3-20 9c-6 7-10 14-13 22c-2 8-3 16-3 24c0 7 1 15 3 23c3 8 7 15 13 22c6 6 12 9 20 9c8 0 15-3 21-9c6-7 10-14 12-22c3-8 4-16 4-23z m46 0c0 22-7 42-20 58c-13 16-31 24-53 24c-8 0-27-2-56-6c-14-2-29-3-45-3c-16 0-31 1-45 3c-29 4-47 6-56 6c-22 0-40-8-53-24c-13-16-20-36-20-58c0-17 3-32 9-44c7-13 14-23 24-30c9-7 21-13 34-17c14-4 28-7 40-8c13-2 27-2 43-2l48 0c16 0 30 0 43 2c12 1 26 4 40 8c13 4 25 10 34 17c10 7 17 17 24 30c6 12 9 27 9 44z m64 50c0-40-6-71-18-95c-7-14-17-27-30-38c-13-10-26-19-40-24c-14-6-30-11-49-14c-18-3-34-5-49-6c-14-1-30-1-47-1c-15 0-29 0-41 0c-12 1-26 2-42 4c-16 2-31 5-44 9c-13 3-26 8-39 14c-13 6-24 14-34 23c-11 10-19 21-25 33c-12 24-18 55-18 95c0 45 13 83 39 113c-5 16-8 32-8 49c0 22 5 42 15 62c21 0 39-4 54-11c16-8 34-20 54-36c28 7 58 10 89 10c28 0 54-3 80-9c20 16 37 27 53 35c16 7 34 11 54 11c10-20 15-40 15-62c0-17-3-33-8-48c26-31 39-69 39-114z"/>
<glyph unicode="&#80;" d="m399 260l-133 187c-2 3-6 5-10 5c0 0 0 0 0 0c-5 0-9-2-11-5l-132-187c-3-4-4-9-1-13c2-4 6-7 11-7l62 0l0-167c0-8 6-13 13-13l116 0c7 0 13 5 13 13l0 167l62 0c5 0 9 3 11 7c3 4 2 10-1 13z"/>
<glyph unicode="&#81;" d="m260 113l187 133c3 2 5 6 5 10c0 0 0 0 0 0c0 5-2 9-5 11l-187 132c-4 3-9 4-13 1c-4-2-7-6-7-11l0-62l-167 0c-8 0-13-6-13-13l0-116c0-7 5-13 13-13l167 0l0-62c0-5 3-9 7-11c4-3 10-2 13 1z"/>
<glyph unicode="&#82;" d="m252 399l-187-133c-3-2-5-6-5-10c0 0 0 0 0 0c0-5 2-9 5-11l187-132c4-3 9-4 13-1c4 2 7 6 7 11l0 62l167 0c8 0 13 6 13 13l0 116c0 7-5 13-13 13l-167 0l0 62c0 5-3 9-7 11c-4 3-10 2-13-1z"/>
<glyph unicode="&#83;" d="m113 252l133-187c2-3 6-5 10-5c0 0 0 0 0 0c5 0 9 2 11 5l132 187c3 4 4 9 1 13c-2 4-6 7-11 7l-62 0l0 167c0 8-6 13-13 13l-116 0c-7 0-13-5-13-13l0-167l-62 0c-5 0-9-3-11-7c-3-4-2-10 1-13z"/>
<glyph unicode="&#84;" d="m454 116l0 280c0 0 0 0 0 0c0 0 0 0 0 0l0 2l0 0c0 6-6 11-13 11c0 0 0 0 0 0l-23 0c-1 0-1 1-1 1c-8 0-13-6-13-13c0-1 0-2 0-2l0-119l-171 99c-2 1-4 2-6 2c-5 0-9-3-9-8l0 0l0-78l-146 84c-1 1-3 2-6 2c-5 0-8-3-9-8l0 0l0-226c0-4 4-8 9-8c3 0 5 1 7 2l145 84l0-78c0-4 4-8 9-8c2 0 5 1 6 2l171 99l0-120l0 0c0 0 0 0 0-1c0-7 6-13 13-13l25 0l0 1c7 0 13 5 13 13c0 0-1 0-1 0z"/>
<glyph unicode="&#85;" d="m431 442l-262 0c-9 0-17-7-17-16l0-246c-6 1-12 2-18 2c-38 0-69-25-69-56c0-31 31-56 69-56c38 0 69 25 69 56l0 236l193 0l0-135c-6 1-12 2-18 2c-38 0-69-25-69-56c0-31 31-56 69-56c38 0 69 25 69 56l0 253c0 9-7 16-16 16z"/>
<glyph unicode="&#86;" d="m442 256c0 4-2 7-5 8l0 0l-192 111c-1 1-3 2-6 2c-4 0-8-3-8-8l0 0l0-78l-146 84c-2 1-4 2-6 2c-5 0-9-3-9-8l0 0l0-226c0-4 4-8 9-8c2 0 4 1 6 2l146 84l0-78c0-4 3-8 8-8c3 0 5 1 7 2l192 111l0 1c2 1 4 4 4 7z"/>
<glyph unicode="&#87;" d="m134 179c-24 0-45-20-45-45c0-24 21-44 45-44c25 0 45 20 45 44c0 25-20 45-45 45z m-13 124c-1 0-1 0-1 0l0 0l-18 0l0 0c-9-1-15-8-16-17l0 0l0-32l1 0c1-8 7-14 15-15l0 0l18 0l0 0c0 0 0 0 1 0c65 0 118-53 119-118l0 0l0-18l0 0c1-9 8-15 17-16l0 0l32 0l0 1c8 1 14 7 15 15l0 0l0 18l0 0c-1 100-83 182-183 182z m305-182c-1 167-138 304-305 304c-1 0-1 0-1 0l0 0l-18 0l0-1c-9-1-15-8-16-17l0 0l0-31l1 0c1-8 7-15 15-16l0 0l18 0l0 0c0 0 0 0 1 0c132 0 240-107 240-239l0 0l0-18l0 0c1-9 9-15 17-16l0 0l32 0l0 1c8 1 14 7 15 15l1 0l0 18l0 0z"/>
<glyph unicode="&#89;" d="m434 160l-96 96l96 96c4 4 4 10 0 14l-68 68c-4 4-10 4-14 0l-96-96l-96 96c-4 4-11 4-14 0l-68-68c-2-1-3-4-3-7c0-2 1-5 3-7l96-96l-96-96c-2-2-3-5-3-7c0-3 1-6 3-7l68-68c1-2 4-3 7-3c2 0 5 1 7 3l96 96l96-96c2-2 5-3 7-3c3 0 5 1 7 3l68 68c4 4 4 10 0 14z"/>
<glyph unicode="&#90;" d="m404 425c0 0-1 0-1 0l0 0l-9 10l-1 0c-5 4-13 4-18-1l0 0l-17-17l0 0c-4-5-4-13 0-18l0 0l1-1l9-9l0 1c0-1 0-1 0-1c74-73 74-193 1-267l0 1l-9-9l-1-1l0 0c-4-6-4-14 1-19l0 0l17-17l0 0c5-4 13-4 18 0l0 0l10 10l-1 0c93 93 93 245 0 338z m-49-68c0 1 0 1 0 1l0 0l-10 10l0 0c-6 4-13 4-18-1l0 0l-1 0c0 0 0 0 0 0c0 0 0 0 0 0l-16-17c0 0 0 0 0 0c0 0 0 0 0 0l-1-1l0 0c-4-5-4-12 0-17l0 0l10-10l0 0c0 0 0 0 1 0c36-37 36-95 0-132l0 0l-9-9c0 0 0 0 0 0l0 0l-1-1l0 0c-4-5-4-13 1-18l0 0l18-18l0 0c5-4 12-4 17 0l0 0l10 10l0 0c55 57 55 147-1 203z m-85 33c-2 0-4 0-5-1l0 0l-105-61l0 0l-40-23l-74 0l0 0c0 0 0 0 0 0c-4 0-8-3-8-8l0-105c0-5 4-8 8-8c0 0 0 0 0 0l0 0l74 0l59-34l0 0l85-49c2-1 4-2 6-2c6 0 11 5 11 11c0 0 0 0 0 1l0 0l0 270l0 0c-1 5-5 9-11 9z"/>
<glyph unicode="&#48;" d="m377 392l0 0c0 5-5 10-10 10c-2 0-4-1-6-2l0 0l-104-60l0 0l-40-23l-74 0l0 0c0 0 0 0 0 0c-5 0-8-4-8-8l0-106c0-4 3-8 8-8c0 0 0 0 0 0l0 0l74 0l59-34l0 0l85-49c1-1 3-2 6-2c6 0 10 5 10 11c0 0 0 1 0 1l0 0z"/>
<glyph unicode="&#49;" d="m446 377c-3 0-5-1-7-2l-145-84l0 78c0 4-4 8-9 8c-2 0-5-1-6-2l-171-99l0 120l0 0c0 0 0 0 0 1c0 7-6 12-13 13l-25 0l0-1c-7 0-13-5-13-13c0 0 1 0 1 0l0-280c0 0 0 0 0 0c0 0 0 0 0 0l0-2l0 0c0-6 6-11 13-11c0 0 0 0 0 0l23 0c1 0 1-1 1-1c8 0 13 6 13 13c0 1 0 2 0 2l0 119l171-99c2-1 4-2 6-2c5 0 9 3 9 8l0 0l0 78l146-84c1-1 3-2 6-2c5 0 8 3 9 8l0 0l0 226c0 4-4 8-9 8z"/>
<glyph unicode="&#50;" d="m477 420c0 12-10 23-23 23c-1 0-2 0-3-1l0 1l-393 0l0 0c-13 0-23-11-23-23l0-330l0 0c1-12 11-21 23-21l0 0l393 0l0 1c1-1 2-1 3-1c12 0 22 9 23 21l0 0l0 330z m-51-300l-55 0c0 1-1 2-1 2l0 0l-116 202l0 0c-3 5-8 9-15 9c-6 0-11-4-14-10l-77-134l-19 33l0 0c-2 3-4 5-8 5c-3 0-6-2-7-5l-28-48l0 218l340 0z m-26 194c0-28-23-51-51-51c-29 0-52 23-52 51c0 29 23 52 52 52c28 0 51-23 51-52z"/>
<glyph unicode="&#51;" d="m106 426l27-306l123-34l123 34l27 306l-300 0z m243-73l-2-19l0-8l-144 0l3-38l137 0l-1-11l-9-98l0-7l-77-21l0 0l-77 21l-5 59l37 0l3-30l42-11l0 0l0 0l42 11l4 49l-130 0l-9 103l-1 11l188 0z"/>
<glyph unicode="&#52;" d="m256 397c78 0 141-63 141-141c0-78-63-141-141-141c-78 0-141 63-141 141c0 78 63 141 141 141m0 51c-106 0-192-86-192-192c0-106 86-192 192-192c106 0 192 86 192 192c0 106-86 192-192 192z m98-121l-20 20c-3 4-10 4-14 0l-64-64l-35 36c-4 3-10 3-14 0l-20-20c-2-2-3-5-3-8c0-2 1-5 3-7l62-62c2-2 4-3 7-3c0 0 0 0 0 0c3 0 6 1 7 3l91 91c4 4 4 10 0 14z"/>
<glyph unicode="&#53;" d="m479 282c-1 2-1 4-3 6c-2 2-5 3-7 3l-202 0c-13 51-60 89-115 89c-65 0-119-54-119-119c0-66 54-119 119-119c59 0 107 43 117 99l45 0l0-65l0 0c0-5 5-9 10-9c0 0 0 0 0 0l0 0l31 0l0 0c5 0 10 4 10 9l0 0l0 65l26 0l0-100l0 0c0-5 4-9 9-9c0 0 0 0 0 0l32 0c0 0 0 0 0 0c5 0 9 4 10 9l0 0l0 100l27 0l0 0c2 0 5 0 7 2c2 2 3 5 3 7l0 0l0 32l0 0z m-327-90c-37 0-68 30-68 68c0 38 31 68 68 68c38 0 68-30 68-68c0-38-30-68-68-68z"/>
<glyph unicode="&#54;" d="m471 471c0 0 0 0 0 0c0 8-6 14-14 14l0 0c0 0 0 0 0 0c0 0 0 0 0 0l-254 0l0 0l-162-161l0 0l0-283l0 0c0 0 0 0 0 0c0-8 6-14 14-14l402 0c7 0 12 4 14 11l0 0l0 2c0 0 0 0 0 1c0 0 0 0 0 0z m-125-37l74 0l0-125l-93 92z m-143-124l0 0c7 0 14 6 14 14c0 0 0 0 0 0l0 110l100 0l-139-240l-86 85l0 31z m-111-232l0 165l72-72l-53-93z m48 0l174 300l106-106l0-194z m178 201c-34 0-62-28-62-62c0-14 4-26 12-36l40-69c0-1 0-1 1-1l0-1l0 0c2-2 5-4 9-4c3 0 6 1 8 4l0 0l1 0c0 1 1 2 1 3l39 67c8 11 12 23 12 37c0 34-27 62-61 62z m-1-93c-17 0-30 13-30 30c0 17 13 31 30 31c17 0 30-14 30-31c0-17-13-30-30-30z"/>
<glyph unicode="&#55;" d="m291 459c-91 0-164-74-164-164c0-31 8-60 23-85l-79-79l0 0c-8-8-14-20-14-33c0-25 21-45 46-45c12 0 24 5 32 14l0 0l82 81c22-11 47-17 74-17c90 0 164 73 164 164c0 90-74 164-164 164z m1-263c-57 0-103 45-103 102c0 56 46 102 103 102c56 0 102-46 102-102c0-57-46-102-102-102z"/>
<glyph unicode="&#56;" d="m462 445l-412 0c-16 0-29-12-29-28l0-252c0-16 13-29 29-29l155 0l0-44l-48 0c-5 0-8-4-8-8l0-9c0-5 3-8 8-8l194 0c4 0 8 3 8 8l0 9c0 4-4 8-8 8l-44 0l0 44l155 0c16 0 29 13 29 29l0 252c0 16-13 28-29 28z m-390-258l0 208l368 0l0-208z"/>
<glyph unicode="&#57;" d="m355 422l-198 0l0 0c-7 0-13-6-13-12l0-308c0-6 6-12 13-12l0 0l198 0c7 0 13 5 13 12l0 308c0 7-6 12-13 12z m-99-319c-7 0-12 6-12 12c0 7 5 13 12 13c7 0 13-6 13-13c0-6-6-12-13-12z m61 38l-122 0l0 230l122 0l0-230z"/>
<glyph unicode="&#33;" d="m429 391c0 3-2 6-5 7c-2 1-5 1-8 0l-30-22l-2-2c-33 33-78 53-128 53c-68 0-127-37-158-93l0 0c-3-6-1-13 5-17c0 0 0 0 0 0l42-24c6-3 14-1 17 5c0 0 0 0 0 0c19 33 54 55 94 55c25 0 48-9 66-23l-5-4l-30-21c-3-2-4-5-3-8c0-3 2-5 5-6l130-44c2-1 5-1 7 1c2 1 3 3 3 6z m-20-196c0 0 0 0 0 0l-42 24c-6 3-14 1-17-5c0 0 0 0 0 0c-19-33-54-55-94-55c-25 0-48 9-66 23l5 4l30 21c3 2 4 5 3 8c0 3-2 5-5 6l-130 44c-2 1-5 1-7-1c-2-1-3-3-3-6l0-137c0-3 2-6 5-7c2-1 5-1 8 0l30 22l2 2c33-33 78-53 128-53c68 0 127 37 158 93l0 0c3 6 1 13-5 17z"/>
<glyph unicode="&#34;" d="m420 286l-45 0l0 43c0 0 0 0 0 0c0 67-54 122-121 122c-67 0-122-55-122-122l0-43l-40 0c-8 0-14-6-14-14l0-197c0-8 6-14 14-14l328 0c8 0 14 6 14 14l0 197c0 8-6 14-14 14z m-216 43c0 28 22 50 50 50c27 0 49-22 50-49c0 0 0 0 0 0l0 0c0-1 0-1 0-1l0-43l-100 0z"/>
<glyph unicode="&#35;" d="m467 95l0 0l-1 2c0 0-1 1-1 2l-193 334c-3 5-9 9-16 9c-8 0-14-4-17-11l0 0l-191-331l0 0c-3-4-4-8-4-12c0-10 8-18 18-18l388 0c10 0 18 8 18 18c0 3 0 5-1 7z m-211 9c-15 0-26 12-26 27c0 14 11 26 26 26c15 0 26-12 26-26c0-15-11-27-26-27z m26 233l0-145l0 0c0 0 0 0 0 0c0-6-4-11-10-11c0 0 0 0 0 0l0 0l-32 0c-6 0-10 5-10 11c0 0 0 0 0 0l0 0l0 144c0 0 0 1 0 1c0 5 4 10 9 10l0 0l33 0l0 0c6 0 10-4 10-10l0 0l0 0c0 0 0 0 0 0z"/>
<glyph unicode="&#36;" d="m416 351c5 0 10 4 10 10l0 30c0 6-5 10-10 10l-24 0l0 9c0 9-7 16-16 16l-274 0c-9 0-16-7-16-16l0-308c0-9 7-16 16-16l274 0c9 0 16 7 16 16l0 9l24 0c5 0 10 5 10 10l0 30c0 6-5 11-10 11l-24 0l0 29l24 0c5 0 10 4 10 10l0 30c0 6-5 11-10 11l-24 0l0 29l24 0c5 0 10 4 10 10l0 30c0 6-5 10-10 10l-24 0l0 30l24 0z m-97-165c0-6-4-11-9-11l-142 0c-5 0-10 5-10 11l0 44c0 4 3 8 6 10l56 26c-13 8-22 24-22 42c0 27 18 48 41 48c23 0 41-21 41-48c0-18-9-34-21-42l55-26c3-2 5-6 5-10l0-44z"/>
<glyph unicode="&#37;" d="m456 343c0 1 0 1 0 1c0 5-2 10-5 13l0 1l-40 69c-1 6-6 10-13 10c0 0 0 0-1 0l0 0l-283 0l0 0c0 0 0 0 0 0c-5 0-9-3-12-7l0 0l-42-72l0 0c-3-4-4-9-4-14c0 0 0 0 0-1l0-247c0 0 0 0 0 0c0-12 9-21 20-21c1 0 1 0 1 0l358 0c0 0 0 0 0 0c12 0 21 9 21 21c0 0 0 0 0 0l0 247z m-131-125l-64-90c-1-1-3-2-5-2c0 0 0 0 0 0c-2 0-4 1-5 2l-64 90c-1 2-1 4 0 6c1 2 3 3 5 3l30 0l0 81c0 3 3 6 6 6l56 0c3 0 6-3 6-6l0-81l30 0c2 0 4-1 5-3c1-2 1-4 0-6z m-231 147l27 47l270 0l27-47z"/>
<glyph unicode="&#38;" d="m420 398l0 0c0 4-4 8-8 8l0 0l-17 0l0-309l0 0c0-5-4-9-9-9l0 0l-260 0c-4 0-8 3-9 7l0 19l243 0l0 0c0 0 0 0 0 0c5 0 9 4 9 8c0 0 0 0 0 0l0 319c0 4-4 8-9 8c0 0 0 0 0 0l0 0l-29 0l0-179c0-2-2-4-4-4c-1 0-3 1-3 2l-29 29l0 0c-1 0-2 1-3 1c-1 0-2-1-3-1l0 0l-29-30l0 0c-1 0-2-1-3-1c-2 0-4 2-4 4l0 179l-153 0c-4 0-8-4-8-8c0 0 0 0 0-1l0-368c0-1 0-1 0-1c0 0 0 0 0 0l0 0l0 0c0-5 4-8 8-8l0 0l312 0l0 0l0 0c4 0 8 4 8 8l0 0z"/>
<glyph unicode="&#39;" d="m226 227l18 11l-24 20z m227 29c0 5-2 9-5 11l0 0l-48 28l28 47l0 1c1 3 1 8-1 12c-2 4-6 6-10 7l0 0l-56 0l0 55l0 0c0 4-3 8-6 10c-4 2-9 2-13 1l0 0l-48-28l-27 46l0 0c-3 4-7 6-11 6c-5 0-9-2-11-6l-1 0l-27-47l-47 27l0 0c-4 2-8 2-12-1c-4-2-7-6-7-10l0 0l0-55l-55 0l0 0c-4 0-8-2-10-6c-2-4-2-9-1-13l0 0l27-46l-48-28l0 0c-3-3-5-7-5-11c0-5 2-9 5-11l0 0l48-28l-28-48l0 0c-1-3-1-8 1-12c2-4 6-6 11-7l0 0l55 0l0-55l0 0c0-4 3-8 6-10c4-2 9-2 13-1l0 0l48 28l27-46l0 0c3-4 7-6 11-6c5 0 9 2 11 6l1 0l27 47l47-27l0 0c4-2 8-2 12 1c4 2 7 6 7 10l0 0l0 55l55 0l0 0c4 0 8 2 10 6c2 4 2 9 1 13l0 0l-27 46l48 28l0 0c3 3 5 7 5 11z m-261-78c-11-6-22-7-30-5l1 14c7-2 15-2 23 3c7 4 9 9 7 12c-6 10-36-16-49 6c-6 10-2 23 12 31c10 5 19 7 28 5l-2-14c-7 2-15 0-21-3c-5-3-7-7-4-11c5-9 35 17 48-5c6-11 3-24-13-33z m72 43l-10 8l-25-15l2-12l-14-8l-12 72l16 9l57-46z m19 11l-34 59l12 7l28-48l25 15l6-11z m46 27l-34 59l42 24l6-11l-29-17l7-13l29 17l6-11l-29-17l8-13l29 17l7-11z"/>
<glyph unicode="&#40;" d="m413 310l-314 0c-3 0-6-3-6-7l0-225c0-3 3-6 6-6l314 0c3 0 6 3 6 6l0 225c0 4-3 7-6 7z m-211-191c-11 0-23 3-32 6c-2 1-3 2-2 4l3 22c0 1 0 1 1 2c1 0 2 1 3 0c10-4 19-5 29-5c12 0 20 5 20 13c0 9-5 14-30 16c-2 0-3 1-3 3l0 22c0 2 1 3 3 3c21 2 24 8 24 13c0 3 0 9-15 9c-7 0-16-2-24-6c-1-1-2-1-3 0c-1 0-2 1-2 2l-3 22c0 1 1 3 2 3c10 5 22 7 37 7c26 0 44-12 44-30c0-14-7-24-21-31c12-4 25-13 25-31c0-27-22-44-56-44z m136 6c0-2-1-4-3-4l-27 0c-1 0-3 2-3 4l0 88l-17-7c-1 0-2 0-3 0c-1 1-2 2-2 3l-3 22c0 1 1 2 2 3l38 19c1 0 1 0 2 0l13 0c2 0 3-1 3-3l0-125z m75 286l-34 0l0-16c0-16-9-34-36-34c-26 0-36 18-36 34l0 16l-102 0l0-16c0-16-9-34-36-34c-26 0-36 18-36 34l0 16l-34 0c-3 0-6-3-6-6l0-66c0-4 3-7 6-7l314 0c3 0 6 3 6 7l0 66c0 3-3 6-6 6z m-244-29c11 0 15 4 15 13l0 32c0 9-4 13-15 13c-11 0-15-4-15-13l0-32c0-9 4-13 15-13z m174 0c11 0 15 4 15 13l0 32c0 9-4 13-15 13c-11 0-15-4-15-13l0-32c0-9 4-13 15-13z"/>
<glyph unicode="&#41;" d="m471 387l-44 45c-1 1-4 2-6 2c-2 0-4-1-6-2l-159-160l-31 31c-3 3-9 3-12 0l-44-44c-2-2-2-4-2-6c0-2 0-4 2-6l81-80c1-2 3-3 6-3c0 0 0 0 0 0c0 0 0 0 0 0c2 0 4 1 6 3l209 209c3 3 3 8 0 11z m-102-150l0-108l-226 0l0 226l159 0l51 51l-234 0l0 0c0 0 0 0-1 0c-14 0-25-12-26-26l0 0l0-276l0 0c1-14 12-26 26-26l0 0l276 0l0 0c14 0 25 12 26 26l0 0l0 185z"/>
<glyph unicode="&#42;" d="m407 270c-18 66-74 113-139 113c-45 0-88-23-115-62c-8 2-15 3-23 3c-61 0-110-54-110-121c0-23 6-46 18-66c3-5 8-8 13-8l414 0c5 0 9 3 12 7c10 15 15 32 15 50c0 50-40 90-85 84z"/>
<glyph unicode="&#43;" d="m453 425c-1 9-8 16-17 16l-360 0l0 0c-9 0-16-7-17-16l0 0l0-288l0 0c2-8 9-14 17-14l0 0l59 0l0-35c0-9 8-17 17-17c6 0 11 3 14 8l45 44l225 0c8 0 15 6 17 14l0 0l0 288z"/>
<glyph unicode="&#44;" d="m453 425c-1 9-8 16-17 16l-360 0l0 0c-9 0-16-7-17-16l0 0l0-288l0 0c2-8 9-14 17-14l0 0l59 0l0-35c0-9 8-17 17-17c6 0 11 3 14 8l45 44l225 0c8 0 15 6 17 14l0 0l0 288z m-308-172c-15 0-29 12-29 34c0 25 13 47 34 61l0 0c1 1 1 1 2 1c1 0 1 0 2-1l0 0l14-9l0 0c1 0 1-1 1-3c0-1 0-2-2-3l0 0c0 0 0 0 0 0c0 0 0 0 0 0c-10-6-22-19-25-31c2 1 4 1 7 1c13 0 23-10 23-24c0-14-12-26-27-26z m68 0c-15 0-29 12-29 34c0 25 13 47 34 61l0 0c0 1 1 1 2 1c0 0 1 0 2-1l0 0l14-9l0 0c1 0 1-1 1-3c0-1-1-2-2-3l0 0c0 0 0 0 0 0c0 0 0 0 0 0c-11-6-22-19-25-31c1 1 4 1 7 1c12 0 22-10 22-24c0-14-12-26-26-26z m81-37l0 0c0 0-1-1-2-1c0 0-1 1-2 1l0 0l-14 9l0 0c-1 1-1 2-1 3c0 1 1 3 2 3l0 0c0 0 0 0 0 0c0 0 0 0 0 0c11 6 22 20 25 31c-1 0-4-1-7-1c-12 0-22 10-22 24c0 15 12 27 26 27c15 0 29-13 29-34c0-25-13-48-34-62z m68 0l0 0c-1 0-1-1-2-1c-1 0-1 1-2 1l0 0l-14 9l0 0c-1 1-1 2-1 3c0 1 0 3 2 3l0 0c0 0 0 0 0 0c0 0 0 0 0 0c10 6 22 20 25 31c-2 0-4-1-7-1c-13 0-23 10-23 24c0 15 12 27 27 27c15 0 29-13 29-34c0-25-13-48-34-62z"/>
<glyph unicode="&#45;" d="m486 421c0 6-6 11-12 11l0 0l-271 0c-7 0-12-5-13-11l0 0l0-68l114 0c6 0 11-4 12-10l0 0l0-150l56 0l33-33c3-3 7-6 11-6c7 0 13 6 13 13l0 26l45 0l0 0c6 1 11 5 12 11l0 0l0 217z m-207-93l-242 0l0 0c-6 0-11-5-11-11l0 0l0-193l0 0c1-5 5-9 11-10l0 0l40 0l0-23c0-6 5-11 11-11c4 0 8 2 10 5l30 29l151 0c5 0 10 4 11 10l0 0l0 193l0 0c0 6-5 11-11 11z"/>
<glyph unicode="&#46;" d="m93 439l31-330l132-36l132 36l31 330z m260-107l-97-42l0 0l94 0l-11-123l-83-25l0 0l0 0l-83 25l-6 62l42 0l2-32l45-11l0 0l0 0l46 13l3 52l-49 0l-91 0l-4 39l95 40l5 2l-103 0l-5 40l204 0z"/>
<glyph unicode="&#47;" d="m430 393c-1 20-17 36-37 37l0 0l-274 0l0 0c-20-1-36-17-37-37l0 0l0-274l0 0c1-20 17-36 37-37l0 0l274 0l0 0c20 1 36 17 37 37l0 0l0 274z m-261-258c-20 0-36 16-36 36c0 20 16 36 36 36c20 0 36-16 36-36c0-20-16-36-36-36z m0 172c-20 0-36 16-36 36c0 20 16 36 36 36c20 0 36-16 36-36c0-20-16-36-36-36z m87-87c-20 0-36 16-36 36c0 20 16 36 36 36c20 0 36-16 36-36c0-20-16-36-36-36z m87-87c-20 0-36 16-36 36c0 20 16 36 36 36c20 0 36-16 36-36c0-20-16-36-36-36z m0 174c-20 0-36 16-36 36c0 20 16 36 36 36c20 0 36-16 36-36c0-20-16-36-36-36z"/>
<glyph unicode="&#58;" d="m430 393c-1 20-17 36-37 37l0 0l-274 0l0 0c-20-1-36-17-37-37l0 0l0-274l0 0c1-20 17-36 37-37l0 0l274 0l0 0c20 1 36 17 37 37l0 0l0 274z m-261-258c-20 0-36 16-36 36c0 20 16 36 36 36c20 0 36-16 36-36c0-20-16-36-36-36z m0 172c-20 0-36 16-36 36c0 20 16 36 36 36c20 0 36-16 36-36c0-20-16-36-36-36z m174-174c-20 0-36 16-36 36c0 20 16 36 36 36c20 0 36-16 36-36c0-20-16-36-36-36z m0 174c-20 0-36 16-36 36c0 20 16 36 36 36c20 0 36-16 36-36c0-20-16-36-36-36z"/>
<glyph unicode="&#59;" d="m430 393c-1 20-17 36-37 37l0 0l-274 0l0 0c-20-1-36-17-37-37l0 0l0-274l0 0c1-20 17-36 37-37l0 0l274 0l0 0c20 1 36 17 37 37l0 0l0 274z m-174-176c-22 0-39 17-39 39c0 22 17 39 39 39c22 0 39-17 39-39c0-22-17-39-39-39z"/>
<glyph unicode="&#60;" d="m430 393c-1 20-17 36-37 37l0 0l-274 0l0 0c-20-1-36-17-37-37l0 0l0-274l0 0c1-20 17-36 37-37l0 0l274 0l0 0c20 1 36 17 37 37l0 0l0 274z m-261-258c-20 0-36 16-36 36c0 20 16 36 36 36c20 0 36-16 36-36c0-20-16-36-36-36z m0 85c-20 0-36 16-36 36c0 20 16 36 36 36c20 0 36-16 36-36c0-20-16-36-36-36z m0 87c-20 0-36 16-36 36c0 20 16 36 36 36c20 0 36-16 36-36c0-20-16-36-36-36z m174-174c-20 0-36 16-36 36c0 20 16 36 36 36c20 0 36-16 36-36c0-20-16-36-36-36z m0 87c-20 0-36 16-36 36c0 20 16 36 36 36c20 0 36-16 36-36c0-20-16-36-36-36z m0 87c-20 0-36 16-36 36c0 20 16 36 36 36c20 0 36-16 36-36c0-20-16-36-36-36z"/>
<glyph unicode="&#61;" d="m430 393c-1 20-17 36-37 37l0 0l-274 0l0 0c-20-1-36-17-37-37l0 0l0-274l0 0c1-20 17-36 37-37l0 0l274 0l0 0c20 1 36 17 37 37l0 0l0 274z m-261-86c-20 0-36 16-36 36c0 20 16 36 36 36c20 0 36-16 36-36c0-20-16-36-36-36z m87-87c-20 0-36 16-36 36c0 20 16 36 36 36c20 0 36-16 36-36c0-20-16-36-36-36z m87-87c-20 0-36 16-36 36c0 20 16 36 36 36c20 0 36-16 36-36c0-20-16-36-36-36z"/>
<glyph unicode="&#62;" d="m430 393c-1 20-17 36-37 37l0 0l-274 0l0 0c-20-1-36-17-37-37l0 0l0-274l0 0c1-20 17-36 37-37l0 0l274 0l0 0c20 1 36 17 37 37l0 0l0 274z m-261-86c-20 0-36 16-36 36c0 20 16 36 36 36c20 0 36-16 36-36c0-20-16-36-36-36z m174-174c-20 0-36 16-36 36c0 20 16 36 36 36c20 0 36-16 36-36c0-20-16-36-36-36z"/>
<glyph unicode="&#63;" d="m423 359l0 0c0 2-1 4-2 5l0 0l-50 50l0 0c-2 1-4 2-5 1l-185 0c-1 0-1 0-1 0c-7 0-13-5-13-12l0 0l0 0c0 0 0 0 0-1c0 0 0 0 0 0l0-187l0 0c0 0 0 0 0 0c0-7 5-13 13-13c0 0 0 0 0 0l51 0c1-1 2-2 3-3l1-1l0 0l0 0l50-86l0 0c5-9 14-15 25-15c16 0 30 13 30 29l0 0l0 76l70 0l0 0c7 1 12 6 13 13l0 0l0 144z m-283 21c0 0 0 0 0 0c0 7-5 13-13 13c0 0 0 0 0-1l-25 0l0 0c-7 0-12-5-13-12l0 0l0-141l1 0c0-7 6-12 12-12l0 0l26 0c7 0 13 6 13 13c0 1-1 1-1 2z"/>
<glyph unicode="&#64;" d="m434 389c-1 0-2 0-3 0l0 0c-17-9-37-14-58-14c-38 0-73 17-95 45c-21 19-49 31-80 31c-29 0-56-11-77-29c-4 9-13 15-24 15c-15 0-27-12-27-27l0-322c0-15 12-27 27-27c15 0 27 12 27 27l0 145c17 9 36 13 56 13c39 0 73-17 96-45c21-19 49-31 79-31c33 0 63 14 84 37c2 1 3 3 3 5l0 169c0 5-4 8-8 8z"/>
<glyph unicode="&#91;" d="m432 268l-85 86l-1-1c-24 22-55 36-90 36c-40 0-75-17-99-45l-80-79l0 0c-2-3-4-6-4-9c0-5 3-8 6-11l86-87l0 1c24-22 56-36 91-36c39 0 74 17 98 44l1 0l79 79c0 1 1 1 1 1l0 0c2 3 3 6 3 10c1 4-2 8-6 11z m-176-102c-50 0-90 40-90 90c0 50 40 90 90 90c49 0 89-40 89-90c0-50-40-90-89-90z m44 90c0-24-20-44-44-44c-24 0-44 20-44 44c0 24 20 43 44 43c24 0 44-19 44-43z"/>
<glyph unicode="&#93;" d="m433 258l-90 0c-11 0-21-7-24-17c-9-28-34-46-63-46c-29 0-54 18-63 46c-3 10-13 17-24 17l-90 0c-14 0-25-11-25-25l0-144c0-14 11-25 25-25l354 0c14 0 25 11 25 25l0 144c0 14-11 25-25 25z m-182-13c1-2 3-3 5-3l0 0c2 0 4 1 6 3l69 98c2 2 2 4 1 7c-1 2-4 3-6 3l-33 0l0 88c0 4-3 7-7 7l-60 0c-4 0-7-3-7-7l0-88l-33 0c-2 0-5-1-6-3c-1-3-1-5 1-7z"/>
<glyph unicode="&#94;" d="m440 389l-188 0c-10 12-20 25-23 28c-2 6-8 10-14 10l-75 0c-5 0-9-3-13-6l-25-32l-30 0c-16 0-28-13-28-28l0-248c0-15 12-28 28-28l368 0c16 0 28 13 28 28l0 248c0 15-12 28-28 28z"/>
<glyph unicode="&#95;" d="m356 245c-10 0-17-8-17-17l0-15l34 0l0 15c0 0 0 0 0 0l0 0c0 0 0 0 0 0c0 9-8 17-17 17z m84 144l-188 0c-10 12-20 25-23 28c-2 6-8 10-14 10l-75 0c-5 0-9-3-13-6l-25-32l-30 0c-16 0-28-13-28-28l0-248c0-15 12-28 28-28l368 0c16 0 28 13 28 28l0 248c0 15-12 28-28 28z m-22-248c0-3-3-5-5-5l-113 0c-2 0-4 2-4 5l0 67c0 3 2 5 4 5l14 0l0 15c0 23 19 42 42 42c23 0 41-19 41-42c0 0 0 0 0 0l0-15l16 0c2 0 4-2 4-5l0-67z"/>
<glyph unicode="&#96;" d="m236 204l-73 0c-4 0-7-3-7-8l0-112c0-4 3-8 7-8l73 0c4 0 8 4 8 8l0 112c0 5-4 8-8 8z m113 232l-73 0c-4 0-8-4-8-8l0-344c0-4 4-8 8-8l73 0c4 0 7 4 7 8l0 344c0 4-3 8-7 8z m113-105l-72 0c-5 0-8-3-8-7l0-240c0-4 3-8 8-8l72 0c4 0 8 4 8 8l0 240c0 4-4 7-8 7z m-340 0l-72 0c-4 0-8-3-8-7l0-240c0-4 4-8 8-8l72 0c5 0 8 4 8 8l0 240c0 4-3 7-8 7z"/>
<glyph unicode="&#123;" d="m256 448c-106 0-192-86-192-192c0-106 86-192 192-192c106 0 192 86 192 192c0 106-86 192-192 192z m20-299c0-3-3-6-7-6l-26 0c-4 0-7 3-7 6l0 124c0 4 3 7 7 7l26 0c4 0 7-3 7-7z m-20 159c-13 0-23 10-23 23c0 13 10 23 23 23c13 0 23-10 23-23c0-13-10-23-23-23z"/>
<glyph unicode="&#124;" d="m411 415l0 0l0 0c3 3 3 8 0 11l-10 10c-3 3-8 3-11 0l0 0l-45-45c-3-3-3-7 0-10l11-11l0 0c2-3 7-3 10 0z m-162-2l0 0l14 0l0 0c4 0 8 3 8 7l0 0l0 64c0 5-3 8-8 8l0 0l-14 0l0 0c-5 0-8-3-8-8l0-64l0 0c0-4 4-7 8-7z m220-106c0 4-3 7-7 8l0 0l-64 0c-4 0-8-4-8-8l0-15c0-4 4-7 8-7l64 0l0 0c4 0 7 3 7 7z m-213 81c-60 0-109-49-109-109c0-23 8-45 20-63l0 0c17-25 27-59 27-96c2-2 4-4 7-4c0 0 0 0 1 0l0 0l108 0l0 0c0 0 1 0 1 0c3 0 5 2 7 5c0 38 12 73 29 99c11 17 18 37 18 59c0 60-49 109-109 109z m55-336c0 0-1 0-1 0l0 0l-108 0l0 0c-1 0-1 0-1 0c-4 0-8-3-8-7l0-17c0-5 4-8 8-8c0 0 0 0 1 0l0 0l108 0l0 0c0 0 1 0 1 0c4 0 7 3 7 8l0 17c0 4-3 7-7 7z m0 49c0 0-1 0-1 0l0 0l-108 0l0 0c-1 0-1 0-1 0c-4 0-7-4-8-8c0 0 0 0 0 0l0-17c0-4 4-8 8-8c0 0 0 0 1 1l0-1l108 0l0 1c0-1 1-1 1-1c4 0 7 4 7 8l0 17c0 4-3 8-7 8z m-197 208l0 0l-64 0c-4 0-7-3-7-8l0-14c0-5 3-8 7-8l64 0l0 0c4 0 8 4 8 8l0 14c0 4-4 8-8 8z m-11 109l46-46l0 0c3-2 7-2 10 1l0 0l11 10c2 3 2 8 0 10l0 0l-46 46c-2 3-7 3-10 0l-11-11c-2-3-2-7 0-10z"/>
<glyph unicode="&#125;" d="m422 131c0 1 0 2 0 2l0 138l0 0c0 0 0 0 0 0c0 7-6 13-13 13c0 0 0 0-1 0l-24 0l0 0c-7 0-13-6-13-13l0 0l0-141l0 0c1-6 6-11 13-11l0-1l25 0c8 0 13 6 13 13z m-76-21l0 187c0 0 0 0 0 0c0 7-6 13-13 13c-1 0-1 0-1 0l-51 0c-1 1-2 2-3 3l-50 87l0 0c-6 9-15 15-26 15c-16 0-29-13-29-29l-1 0l0-76l-70 0l0 0c-7-1-12-6-12-13l0 0l0-144l0 0c0-2 0-4 2-5l0 0l50-50l0 0c1-1 3-2 5-1l184 0c1 0 1 0 2 0c7 0 12 5 13 12l0 0l0 0c0 0 0 0 0 1c0 0 0 0 0 0z m-241 43l0-1l0 1z"/>
<glyph unicode="&#126;" d="m411 167l-182 0l0 0c0 0 0 0 0 0c-6 0-11-6-11-12c0 0 0 0 0-1l0-53l0 0c0-6 5-11 11-11l0 0l182 0l0 0c6 0 11 5 11 11l0 53c0 1 0 1 0 1c0 6-5 12-11 12z m-256 0l-54 0c-6 0-11-6-11-12l0-54c0-6 5-11 11-11l54 0c6 0 12 5 12 11l0 54c0 6-6 12-12 12z m256 128l-182 0l0 0c0 0 0 0 0 0c-6 0-11-6-11-12c0 0 0 0 0-1l0-53l0 0c0-6 5-11 11-11l0 0l182 0l0 0c6 0 11 5 11 11l0 53c0 1 0 1 0 1c0 6-5 12-11 12z m-256 0l-54 0c-6 0-11-6-11-12l0-54c0-6 5-11 11-11l54 0c6 0 12 5 12 11l0 54c0 6-6 12-12 12z m63 62l0 0c0-6 5-12 11-12l0 0l182 0l0 0c6 0 11 6 11 12l0 53c0 0 0 0 0 1c0 6-5 11-11 11l0 0l-182 0l0 0c0 0 0 0 0 0c-6 0-11-5-11-11c0-1 0-1 0-1l0-53z m-63 65l-54 0c-6 0-11-5-11-11l0-54c0-6 5-12 11-12l54 0c6 0 12 6 12 12l0 54c0 6-6 11-12 11z"/>
<glyph unicode="&#92;" d="m90 357l0 0c0-6 5-12 11-12l0 0l310 0l0 0c6 0 11 6 11 12l0 0l0 54c0 6-5 11-11 11l-310 0c-6 0-11-5-11-11c0-1 0-1 0-1z m321-63l-310 0c-6 0-11-5-11-11c0 0 0-1 0-1l0-53l0 0c0-6 5-11 11-11l0 0l310 0l0 0c6 0 11 5 11 11l0 0l0 54c0 6-5 11-11 11z m0-127l-310 0c-6 0-11-6-11-12c0 0 0 0 0-1l0-53l0 0c0-6 5-11 11-11l0 0l310 0l0 0c6 0 11 5 11 11l0 0l0 54c0 6-5 12-11 12z"/>
<glyph unicode="&#57344;" d="m440 409l-368 0c-7 0-13-6-13-13l0-27c0-1 1-2 2-3l194-110c0-1 1-1 1-1c1 0 2 0 2 1l188 110c1 1 3 2 5 3c1 1 2 1 2 3l0 24c0 7-6 13-13 13z m11-80c-1 1-2 1-3 0l-106-62c-1 0-1-1-2-2c0-1 1-2 1-3l106-115c1 0 2-1 3-1c0 0 1 1 1 1c1 0 2 1 2 3l0 177c0 1 0 2-2 2z m-140-83c-1 1-2 1-4 1l-42-25c-5-3-12-3-17-1l-37 22c-1 1-3 0-4-1l-142-131c-1-1-1-2-1-3c0-1 1-2 1-3c3-1 5-2 7-2l364 0c2 0 3 1 3 2c1 2 1 3 0 4z m-135 12c1 1 1 2 1 3c0 1-1 2-2 2l-111 64c-1 1-2 0-4 0c-1-1-1-2-1-3l0-167c0-1 1-2 2-3c0 0 1 0 1 0c1 0 2 0 2 1z"/>
<glyph unicode="&#57345;" d="m386 260l0 0l0 1c0 0 0 0 0 0l0 73c0 11-8 19-19 19c-11 0-19-8-19-19l0-73c0-51-41-92-92-92c-51 0-92 41-92 92l0 73c0 11-8 19-19 19c-11 0-19-8-19-19l0-74l0 0c0-65 48-119 111-128l0-28l-69 0l0 0c-10 0-19-9-19-19c0-11 9-19 19-20l0 0l176 0c10 0 19 9 19 20c0 10-9 19-19 19l-69 0l0 28c63 9 111 63 111 128z m-196 1c0-36 30-65 66-65c36 0 66 29 66 65c0 1 0 1 0 2l0 0l0 119l0 0c-1 36-30 65-66 65c-36 0-65-29-66-65l0 0l0-119l0 0c0-1 0-1 0-2z"/>
<glyph unicode="&#57346;" d="m385 474l0 0l0 20c0 5-4 9-8 9l-169 0l-133-133l0-301c0-5 4-9 9-9l293 0c4 0 8 4 8 9l0 13l0 0z m-259-363l0 242l91 0c5 0 9 4 9 8l0 91l108 0l0-341z m303 274l-18 0l0-343c0-4-3-8-8-8l-253 0l0-17c0-5 4-8 8-8l271 0c4 0 8 3 8 8l0 360c0 4-4 8-8 8z"/>
<glyph unicode="&#57347;" d="m343 110l-33 0c-5 0-9-4-9-9l0 0l0-15l-208 0l0 241l91 0c5 0 9 4 9 9l0 90l108 0l0-63l0 0c0-4 4-8 9-8l33 0c5 0 9 4 9 8l0 0l0 1c0 0 0 0 0 0c0 0 0 0 0 0l0 84l0 0l0 21c0 4-4 8-9 8l-168 0l-133-132l0-302c0-4 4-8 9-8l292 0c5 0 9 4 9 8l0 13l0 0l0 45c0 5-4 9-9 9z m124 202l-59 60c-4 3-9 3-13 0l-163-163l1-1l-1 1l-22-84l0 0c-1-3 0-6 2-9c3-2 7-3 10-1l0 0l82 22l0 0l0 0l163 163c4 3 4 9 0 12z m-230-170l13 49l36-36z"/>
<glyph unicode="&#57348;" d="m155 59c-14 0-32 5-50 23c-24 24-27 47-25 62c2 17 11 34 27 50l150 151c43 42 71 26 83 13c16-15 26-42-14-82l-138-139l-27 27l138 139c22 21 17 26 14 28c-1 2-7 8-29-13l-150-151c-7-7-15-17-16-28c-1-9 4-19 14-30c13-13 23-12 26-11c9 1 19 7 30 18c13 12 167 166 178 178c15 15 24 29 28 42c5 20-1 38-20 57c-19 19-51 40-98-8l-165-165c-8-7-20-7-27 0c-8 8-8 20 0 27l165 165c51 51 106 54 152 8c36-36 36-71 30-94c-6-20-18-39-38-59c-11-12-166-166-178-178c-17-17-34-26-51-29c-3 0-6-1-9-1z"/>
<glyph unicode="&#57349;" d="m208 410c-1 0-1 0-2 0l0 0l-53 0c-6 0-11-5-11-11c0 0 0 0 0 0l0 0l0-286l0 0c0 0 0 0 0 0c0-6 5-11 11-11l55 0c6 0 11 5 11 11c0 0 0 0 0 0l0 0l0 286c0 0 0 0 0 0c0 6-5 11-11 11z m162-297l0 286c0 0 0 0 0 0c0 6-5 11-11 11c-1 0-1 0-2 0l0 0l-53 0c-6 0-11-5-11-11c0 0 0 0 0 0l0 0l0-286l0 0c0 0 0 0 0 0c0-6 5-11 11-11l55 0c6 0 11 5 11 11c0 0 0 0 0 0z"/>
<glyph unicode="&#57350;" d="m455 362l-93 93c-5 5-14 5-20 0l-253-254l1 0l-1 0l-35-130l0 0c-2-4 0-10 3-14c5-4 11-5 16-2l0 0l128 34l0 0l0 0l254 254c5 5 5 14 0 19z m-359-265l21 76l56-56z"/>
<glyph unicode="&#57351;" d="m392 396l0 0c-2 2-5 3-8 3c-3 0-5-1-7-3l0 0l-1 0c0 0 0 0 0 0l-21-19c0 0 0 0 0-1l0 0l0 0c-2-2-3-4-3-7c0-4 2-8 5-10c25-25 40-60 40-98c0-78-63-141-141-141c-78 0-141 63-141 141c0 38 16 73 41 99l0 0c2 2 4 5 4 9c0 3-2 5-4 7l0 0l0 0c0 1 0 1 0 1l-21 19c0 0 0 0 0 0l-1 0l0 0c-2 2-4 3-7 3c-4 0-8-2-10-6c-33-34-53-81-53-132c0-106 86-192 192-192c106 0 192 86 192 192c0 52-21 100-56 135z m-150-205l28 0c0 0 0 0 0 0c6 0 11 5 11 11l0 230l0 0c0 0 0 0 0 0c0 6-5 11-11 11c0 0 0 0 0 0l-28 0c-6 0-11-5-11-11c0 0 0 0 0 0l0 0l0-230c0-6 5-11 11-11z"/>
<glyph unicode="&#57352;" d="m417 173c0 1 0 1 0 1l0 0l-138 239l0 0c-1 1-3 3-5 4l0 0l-56 32l0 0c-3 2-6 2-9 1l-1 0l-1-1c0 0 0 0 0 0c0 0 0 0 0 0l-108-63c-4-2-5-5-5-9l-1 0l0-65l1 0c-1-2 0-4 1-6c0 0 0 0 0 0l137-238c1-1 1-1 1-1c3-5 9-7 14-4l0 0l166 96l0 0c5 3 7 9 4 14z m-231 189c-9-6-21-3-27 7c-5 9-2 21 7 27c10 5 22 2 27-7c6-10 3-22-7-27z"/>
<glyph unicode="&#57353;" d="m452 164c0 0 0 0 0 1l0 0l-138 238l0 0c-1 2-3 3-5 4l0 0l-41 24l46-79l103-179l0 0c0 0 0 0 0 0c3-5 2-12-3-15l0 0l-153-88l6-12c0 0 1 0 1-1c3-5 9-6 14-4l0 0l166 96l0 0c5 3 7 10 4 15z m-74 4c5 3 7 10 4 15c0 0 0 0 0 0l0 0l-138 239l0 0c-1 2-3 3-5 4l0 0l-56 33l0-1c-3 2-6 2-9 1l0 0l-2 0c0 0 0 0 0-1c0 0 0 0 0 0l-108-62c-3-2-5-6-5-9l0 0l0-65l0 0c-1-2 0-5 1-7c0 0 0 0 0 0l138-238c0 0 0 0 0-1c3-5 9-6 14-4l0 0l166 96z m-227 203c-9-5-21-2-27 7c-5 10-2 22 7 27c10 6 22 3 28-7c5-9 2-21-8-27z"/>
<glyph unicode="&#57354;" d="m463 332c0 5-4 9-9 9l-67 0l0 110c0 5-5 10-10 10l-242 0c-5 0-10-5-10-10l0-110l-67 0c0 0 0 0 0 0c-5 0-9-4-9-9l0 0l0-188c0-5 4-10 9-10l67 0l0 79l262 0l0-79l67 0c5 0 9 5 9 10l0 188z m-102-33l-210 0l0 127c0 5 4 9 9 9l192 0c5 0 9-4 9-9l0-127z m-209-238c0-5 4-10 9-10l190 0c5 0 9 5 9 10l0 126l-208 0z"/>
<glyph unicode="&#57355;" d="m256 448c-106 0-192-86-192-192c0-106 86-192 192-192c106 0 192 86 192 192c0 106-86 192-192 192z m0-333c-78 0-141 63-141 141c0 34 12 66 33 90l198-198c-24-21-56-33-90-33z m108 51l-198 198c24 21 56 33 90 33c78 0 141-63 141-141c0-34-12-66-33-90z"/>
<glyph unicode="&#57356;" d="m90 288c-4 0-8 0-10-1c4 18 22 39 38 48c0 0 0 0 0 0c0 0 0 0 1 0l0 0c1 1 3 3 3 5c0 2-1 4-3 5l0 0l-21 13l0 0c-1 1-2 2-4 2c-1 0-2-1-2-1l0 0c-33-23-54-57-54-96c0-34 22-53 46-53c22 0 41 19 41 41c0 22-15 37-35 37z m105 0c-4 0-8 0-10-1c4 18 22 39 38 48c0 0 0 0 0 0c1 0 1 0 1 0l0 0c2 1 3 3 3 5c0 2-1 4-3 5l0 0l-21 13l0 0c-1 1-2 2-4 2c-1 0-1-1-2-1l0 0c-32-23-54-57-54-96c0-34 22-53 46-53c23 0 41 19 41 41c0 22-15 37-35 37z m128 14c-23 0-41-19-41-41c0-22 15-37 35-37c4 0 8 0 10 1c-4-18-22-39-38-48c0 0 0 0 0 0c-1 0-1 0-1 0l0 0c-2-1-3-3-3-5c0-2 1-4 3-5l0 0l21-13l0 0c1-1 2-2 4-2c1 0 1 1 2 1l0 0c32 23 54 57 54 96c0 34-22 53-46 53z m105 0c-22 0-41-19-41-41c0-22 15-37 35-37c4 0 8 0 10 1c-4-18-22-39-38-48c0 0 0 0 0 0c0 0 0 0-1 0l0 0c-1-1-3-3-3-5c0-2 1-4 3-5l0 0l21-13l0 0c1-1 2-2 4-2c1 0 2 1 2 1l0 0c33 23 54 57 54 96c0 34-22 53-46 53z"/>
<glyph unicode="&#57357;" d="m433 401c0 3-2 6-4 7c-3 2-6 1-8 0l-31-22l-2-2c-33 33-78 53-128 53c-100 0-181-81-181-181c0-100 81-181 181-181c60 0 117 29 150 80c2 2 2 4 2 6c-1 3-2 5-4 6l-45 32c-5 3-11 1-14-3c-20-30-53-47-89-47c-59 0-107 48-107 107c0 59 48 107 107 107c25 0 48-8 66-23l-5-3l-30-22c-3-2-4-5-3-8c0-3 2-5 5-6l130-44c2-1 5-1 7 1c2 1 3 4 3 6z"/>
<glyph unicode="&#57358;" d="m433 377c-2 0-4-1-6-2l-146-84l0 78c0 4-3 8-8 8c-3 0-5-1-7-2l-192-111l0-1c-2-1-4-4-4-7c0-4 2-7 5-8l0 0l192-111c1-1 3-2 6-2c4 0 8 3 8 8l0 0l0 78l146-84c2-1 4-2 6-2c5 0 9 3 9 8l0 0l0 226c0 4-4 8-9 8z"/>
<glyph unicode="&#57359;" d="m451 427c0 6-4 10-9 10l-372 0c-5 0-9-4-9-10l0-32c0-5 4-9 9-9c0 0 0 0 0 0l372 0c5 0 9 4 9 9z m-31-67l-328 0c-5 0-9-4-9-9c0 0 0 0 0 0l0 0l0-190c0-12 9-21 21-21l139 0l0-27c-5-4-8-10-8-17c0-11 9-21 21-21c12 0 21 10 21 21c0 7-3 13-8 17l0 27l139 0c12 0 21 9 21 21l0 190l0 0c0 5-4 9-9 9z"/>
<glyph unicode="&#57360;" d="m402 262l0 66l0 0c0 11-8 20-19 20l0 1l-62 0c0 0-1 0-1 0c0 0-1 0-1 0l-1 0l0 0c-14 1-26 13-26 27c0 7 3 12 6 17l0 0c3 6 5 13 5 21c0 23-19 42-42 42c-23 0-42-19-42-42c0-8 2-15 6-21l-1 0c4-5 6-10 6-17c0-14-11-26-26-27l0 0l-74 0l0 0c-11 0-20-10-20-21c0 0 0 0 0-1l0-68l0 0c0-7 5-12 11-12c2 0 3 0 4 1c6 2 13 4 20 4c27 0 50-22 50-50c0-28-23-50-50-50c-7 0-14 1-20 4c-1 0-2 1-4 1c-6 0-11-6-11-12c0-1 0-1 0-2l0 0l0-66c0 0 0 0 0-1c0-11 9-20 20-20c1 0 1 0 2 0l67 0c6 0 12 5 12 12c0 1-1 2-1 3c0 0 0 0 0 0c0 1 0 1 0 1l0 0c-2 5-2 9-2 14c0 28 22 50 50 50c27 0 50-22 50-50c0-5-1-9-2-14l0 0c-1-1-1-3-1-4c0-7 5-12 11-12c0 0 0 0 1 0l65 0c11 0 20 9 20 20l0 0l0 67l0 0c-1 6-5 10-11 10l0 1c-4-1-9-2-13-2c-28 0-50 22-50 50c0 28 22 50 50 50c4 0 9-1 13-2l0 1c0 0 0 0 0 0c5 0 9 3 11 8l0 0l0 3c0 0 0 0 0 0c0 0 0 0 0 0z"/>
<glyph unicode="&#57362;" d="m99 193l-58 0c-1 1-2 1-3 1c-6 0-11-5-12-11l-1 0l0-56l1 0c1-5 5-9 10-10l0 0l87 0l0 0c9 0 17 5 21 12l54 54l-55 55z m386 161l-96 68c-2 2-4 2-6 1c-3-1-4-4-4-6l0-29l-76 0l0 0c-6 0-11-2-15-6l0 0l-54-54l54-54l38 37l53 0l0-30c0-3 1-5 4-6c2-1 5-1 7 0l95 69c1 1 2 3 2 5c0 0 0 0 0 0c0 2-1 4-2 5z m-1-186l-95 69c-2 1-5 1-7 0c-2-1-3-3-3-6l0-30l-53 0l-182 182c-4 7-12 12-21 12l0 0l-87 0l0 0c-5-1-9-5-11-10l0 0l0-56l0 0c1-6 7-11 13-11c1 0 2 0 3 1l58 0l189-189l0 0c4-4 9-6 14-6l0 0l77 0l0-29c0-2 1-5 3-6c2-1 5-1 7 1l95 68c2 1 3 3 3 5c0 0 0 0 0 0c0 2-1 4-3 5z"/>
<glyph unicode="&#57363;" d="m199 97c0-16-14-30-30-30c-17 0-30 14-30 30c0 17 13 30 30 30c16 0 30-13 30-30z m212 0c0-16-14-30-31-30c-16 0-30 14-30 30c0 17 14 30 30 30c17 0 31-13 31-30z m-35 132c7 0 13 4 16 10l0 0l75 130l0 0c1 2 2 5 2 7c0 10-8 18-18 18l-274 0l0 33c0 10-8 18-18 18l-97 0l0 0c0 0-1 0-1 0c-9 0-16-7-17-16l-1 0l0-17c0-10 8-18 18-18c0 0 1 0 1 0l0 0l64 0l0-224l0 0c0-10 8-17 17-17c0 0 0 0 0 0l304 0l0 0c8 1 15 7 16 15l0 0l0 2c0 0 0 1 0 1c0 0 0 0 0 0l0 15c0 0 0 0 0 0c0 9-7 17-16 18l0 0l-270 0l0 25l199 0z"/>
<glyph unicode="&#57364;" d="m476 314c-1 10-9 18-19 18l-31 0c-33 60-97 102-170 102c-73 0-137-42-170-102l-31 0c-10 0-18-8-19-18l-1 0l0-216c0-11 9-20 20-20l402 0c11 0 20 9 20 20l0 216z m-328 18c25 31 64 51 108 51c44 0 83-20 108-51z"/>
<glyph unicode="&#57365;" d="m256 458l0 1l-172-100l0 0l0-118l0 0c2-97 77-178 172-188c96 10 170 91 172 188l0 118l0 0z m0-353l0 142l-121 0l0 82l121 70l0-152l121 0l0-6l0 0c-2-69-54-127-121-136z"/>
<glyph unicode="&#57366;" d="m375 316c-8 0-15-1-22-4l-156 90c0 2 0 3 0 4c0 34-27 61-60 61c-33 0-60-27-60-61c0-33 27-60 60-60c13 0 25 4 35 12l145-84c-1-6-2-12-2-18c0-6 1-12 2-18l-144-84c-10 7-23 12-36 12c-33 0-60-27-60-60c0-34 27-61 60-61c33 0 60 27 60 61c0 1 0 2 0 3l157 91c6-3 13-4 21-4c33 0 60 27 60 60c0 33-27 60-60 60z"/>
<glyph unicode="&#57367;" d="m271 425l53 0l0-110l-53 0z m170-11l0 0l-26 26c-2 3-6 4-9 4c0 0 0 0 0 0l-46 0c0 0 0 0 0 0l-1 0l0 0c-1 0-3 0-4-1c-1-2-2-3-2-4l0 0l0-130l0 0c0-7-5-12-12-12l-176 0l0 0c-7 1-12 6-12 12l0 0l0 130l0 0c-1 1-1 2-2 3c-2 2-4 3-6 2l0 0l-66 0c-7 0-12-5-12-12l0-352c0-7 5-12 12-12l39 0l0 168c0 0 0 0 0 0l0 1l0 0c0 5 4 10 9 11l0 0l1 0c1 0 1 0 2 0l253 0l0 0c6 0 11-5 11-11l0 0l0-169l39 0c7 0 12 5 12 12l0 324c0 0 0 1 0 1c0 3-1 6-4 9z"/>
<glyph unicode="&#88;" d="m256 486c-127 0-230-103-230-230c0-127 103-230 230-230c127 0 230 103 230 230c0 127-103 230-230 230z m141-119c23-29 37-64 38-103c-26 6-50 9-73 9l0 0l0 0c-19 0-36-2-52-5c-4 10-8 19-12 28c36 16 71 39 99 71z m-141 69c42 0 81-15 112-40c-23-28-55-48-88-63c-24 46-47 78-62 98c12 3 25 5 38 5z m-79-19c12-15 37-47 64-98c-55-16-109-20-142-20c-1 0-2 0-3 0l0 0c-6 0-10 0-14 1c12 51 48 94 95 117z m-101-161c0 1 0 2 0 3c5-1 12-1 20-1l0 0c36 0 99 3 163 24c4-8 7-16 11-24c-43-14-77-37-102-60c-24-22-40-43-49-58c-27 32-43 72-43 116z m180-180c-40 0-77 13-107 36c7 10 20 30 42 51c22 21 53 43 93 57c14-39 26-83 36-132c-20-8-42-12-64-12z m102 32c-9 45-21 85-33 121c11 2 23 3 36 3l1 0c21 0 45-3 70-9c-8-47-36-88-74-115z"/>
<glyph unicode="&#57368;" d="m242 435c122-6 250-91 244-203c-4-82-88-154-220-155c-56-1-91 9-115 19c-2 0-3 1-3 2c1 1 2 1 4 0c58-14 79 10 69 27c-11 20-85 19-138 56l1 1c0 0 3 8 4 10c1 2 2 3 4 3l64 0c2 0 3-1 4-3c2-3 7-16 7-16c0 0 4-11 15-12c3 0 12 1 15 11c1 3 1 5 0 7c0 1 0 1 0 2c-1 1-1 1-1 1c-1 2-66 148-66 148c-1 3-3 5-6 5c-1 0-2 0-3-1c-1-1-1-1-1-2c-1-1-1-1-1-2c-1-1-39-86-57-126l-3-6c-6 7-9 12-9 12c-12 16-23 42-24 64c-6 91 84 164 216 158z m4-253l0 139c0 11-6 16-17 16c-10 0-16-5-16-16l0-139c0-12 6-16 16-16c11 0 17 4 17 16z m196 0l0 139c0 11-6 16-17 16c-5 0-10-1-12-4c-2-2-3-4-5-7l-48-108l-48 108c-1 3-3 5-4 7c-3 3-8 4-13 4c-11 0-17-5-17-16l0-139c0-12 7-16 17-16c11 0 17 4 17 16l0 65l33-67c2-5 8-10 14-10c8 0 14 5 17 11l32 66l0-65c0-12 6-16 17-16c10 0 17 4 17 16z m-299 42l-38 0c-2 0-2 2-2 3l19 44l0 0c0 1 0 1 1 1c0 0 0 1 1 1c1 0 2-1 2-1l0-1l0 0l19-44c1-2 0-3-2-3z"/>
<glyph unicode="&#57369;" d="m298 358c-11-1-24-2-37-4c-19-2-39-6-55-14c-32-12-54-40-54-80c0-51 33-77 74-77c14 0 25 2 35 5c17 5 30 14 47 31c9-13 12-19 28-32c4-2 8-2 12 1c10 8 28 24 38 32c4 4 3 9 0 13c-9 12-18 22-18 46l0 77c0 33 2 63-22 85c-20 18-50 25-74 25c-4 0-7 0-11 0c-43-3-90-22-100-76c-2-7 3-9 7-10l48-6c5 1 8 5 8 9c5 19 20 29 37 31c1 0 2 0 4 0c10 0 21-5 27-13c7-11 6-24 6-36z m0-50c0-20 1-35-9-53c-6-12-17-19-28-22c-1 0-4-1-7-1c-18 0-30 15-30 36c0 28 17 41 37 47c11 2 24 3 37 3z m158-241c21 17 30 50 30 66l0 3c0 4-1 7-1 8c-5 5-35 10-62 2c-7-2-14-6-20-10c-5-3-4-7 1-7c5 1 12 2 19 3c16 1 35 1 40-5c7-8-7-42-13-57c-2-5 2-7 6-3z m-428 66c60-54 139-87 228-87c55 0 118 15 167 45c7 4 13 8 19 13c9 6 1 15-7 11c-4-1-8-3-12-4c-54-22-110-31-162-31c-83 0-163 23-228 60c-6 4-10-2-5-7z"/>
<glyph unicode="&#57370;" d="m468 346c-17 41-46 76-83 101c-19 12-39 22-60 29c-22 7-45 10-69 10c-32 0-62-6-90-18c-41-17-76-46-101-83c-12-19-22-39-29-60c-7-22-10-45-10-69c0-32 6-62 18-90c17-41 46-76 83-101c19-12 39-22 61-29c21-7 44-10 68-10c32 0 62 6 90 18c41 17 76 46 101 83c12 19 22 39 29 60c7 22 10 45 10 69c0 32-6 62-18 90z m-28-168c-16-35-41-66-73-87c-16-11-33-19-52-25c-18-6-38-9-59-9l0 0l0 199l-199 0c0 0 0 0 0 0c0 28 5 54 15 78c16 35 41 66 73 87c16 11 33 19 52 25c18 6 38 9 59 9l0-199l199 0c0-28-5-54-15-78z"/>
<glyph unicode="&#57371;" d="m108 420l0-82l-82 0l0-164l128 0l0 246z m-36-205l0 82l36 0l0-82z m92 123l46 0l0-164l-46 0z m0 82l46 0l0-46l-46 0z m189-82l-123 0l0-164l77 0l0-36l-77 0l0-46l123 0z m-77-123l0 82l31 0l0-82z m210 123l-122 0l0-164l81 0l0-36l-81 0l0-46l122 0z m-41-123l-35 0l0 82l35 0z"/>
<glyph unicode="&#57372;" d="m486 371l-32 0l0 0l-27 0l0 90l-172 0l0-89l-59 0l0-116l-140 0l0 116l-30 0l0-117l30 0l0-31l54 0l0-54l-23 0l0-32l77 0l0-55l-77 0l0 55l-31 0l0-87l139 0l0 87l-31 0l0 32l-23 0l0 54l87 0l0-172l31 0l0 0l201 0l0 179l26 0z m-91 59l0-114l-109 0l0 114z m-36-347l0 87l-28 0l0-87l-71 0l0 173l-33 0l0 83l28 0l0-55l172 0l0 55l27 0l0-84l-25 0l0-172z m-195 289l0 30l32 0l0-30z m0 30l-77 0l0 32l77 0z m-77-30l-31 0l0 30l31 0z"/>
<glyph unicode="&#57373;" d="m399 303l-137 84l87 72l137-85z m-51-159l132 78l-80 67l-129-78z m-107 67l-129 78l-80-67l132-78z m-123-56l0-25l132-81l0 154l-87-72z m276 0l-45-24l-87 72l0-154l132 81z m-144 232l-86 72l-138-85l87-71z"/>
<glyph unicode="&#110;" d="m405 274c0-10-3-18-10-26l-186-186c-7-7-16-10-26-10c-10 0-19 3-26 10l-22 22c-7 7-10 16-10 26c0 10 3 18 10 25l139 139l-139 139c-7 7-10 16-10 26c0 10 3 19 10 26l22 21c7 7 16 11 26 11c10 0 19-4 26-11l186-186c7-7 10-16 10-26z"/>
<glyph unicode="&#57374;" d="m344 357c0-3-1-5-3-7l-112-112l112-113c2-1 3-4 3-6c0-3-1-5-3-7l-14-14c-2-2-5-3-7-3c-2 0-5 1-7 3l-133 133c-2 2-3 4-3 7c0 2 1 4 3 6l133 133c2 2 5 3 7 3c2 0 5-1 7-3l14-14c2-2 3-4 3-6z"/>
<glyph unicode="&#57375;" d="m399 174c0-3-1-5-3-7l-15-14c-1-2-4-3-6-3c-3 0-5 1-7 3l-112 112l-112-112c-2-2-4-3-7-3c-2 0-5 1-6 3l-15 14c-2 2-3 4-3 7c0 2 1 4 3 6l133 133c2 2 5 3 7 3c2 0 5-1 7-3l133-133c2-2 3-4 3-6z"/>
<glyph unicode="&#57376;" d="m303 63l-186 186c-7 7-10 15-10 25c0 11 3 19 10 26l186 186c7 7 16 11 26 11c10 0 19-4 26-11l22-21c7-7 10-16 10-26c0-10-3-19-10-26l-139-139l139-138c7-8 10-16 10-26c0-10-3-19-10-26l-22-21c-7-7-16-11-26-11c-10 0-19 4-26 11z"/>
<glyph unicode="&#57377;" d="m399 302c0-3-1-5-3-7l-133-133c-2-2-5-3-7-3c-2 0-5 1-7 3l-133 133c-2 2-3 4-3 7c0 2 1 4 3 6l15 15c1 1 4 2 6 2c3 0 5-1 7-2l112-113l112 113c2 1 4 2 7 2c2 0 5-1 6-2l15-15c2-2 3-4 3-6z"/>
<glyph unicode="&#57378;" d="m479 165c0-11-4-19-11-26l-21-22c-8-7-16-10-26-10c-11 0-19 3-26 10l-139 139l-139-139c-7-7-15-10-26-10c-10 0-18 3-25 10l-22 22c-7 7-11 15-11 26c0 10 4 18 11 26l186 186c7 7 16 10 26 10c10 0 19-3 26-10l186-186c7-8 11-16 11-26z"/>
<glyph unicode="&#57379;" d="m335 238c0-3-1-5-3-7l-133-133c-2-2-5-3-7-3c-2 0-5 1-7 3l-14 14c-2 2-3 4-3 7c0 2 1 5 3 6l112 113l-112 112c-2 2-3 4-3 7c0 2 1 4 3 6l14 14c2 2 5 3 7 3c2 0 5-1 7-3l133-133c2-2 3-4 3-6z"/>
<glyph unicode="&#57380;" d="m479 311c0-10-4-19-11-26l-186-186c-7-7-16-11-26-11c-10 0-19 4-26 11l-186 186c-7 7-11 16-11 26c0 10 4 19 11 26l21 21c8 7 17 11 26 11c11 0 19-4 26-11l139-139l139 139c7 7 15 11 26 11c9 0 18-4 26-11l21-21c7-8 11-16 11-26z"/>
<glyph unicode="&#57381;" d="m486 346c0 38-30 69-68 69l-324 0c-38 0-68-31-68-69l0-185c0-38 30-69 68-69l324 0c38 0 68 31 68 69z m-276-171l0 174l132-87z"/>
<glyph unicode="&#57382;" d="m120 443c29 12 54 17 77 18c13 0 24-2 35-4c17-4 40-17 49-22l-42-142c-21 14-47 27-82 27l0 0c-23 0-48-5-77-16z m65-341c10 35 35 119 43 144c-6 4-11 7-17 10c-21 11-42 17-62 17c-3 0-5 0-8-1c-25-2-48-8-63-14c-4-1-8-2-12-4l-40-140c27 11 52 16 74 16c37 0 63-14 85-28z m246 104c-26-8-52-13-75-13c-43 0-74 14-93 28l-40-141c12-7 52-29 83-29c26 0 54 7 86 20z m55 191c-26-11-52-16-77-16c-41 0-71 14-91 28l-41-142c27-18 57-27 89-27c25 0 52 6 79 18l0 1l1 0z"/>
<glyph unicode="&#57383;" d="m486 260c0-124-101-225-226-225c-39 0-77 11-109 28l-125-39l40 120c-20 34-32 73-32 116c0 124 101 224 226 224c125 0 226-100 226-224z m-226 189c-105 0-190-85-190-189c0-41 13-80 36-111l-24-70l74 23c30-19 66-31 104-31c105 0 190 85 190 189c0 104-85 189-190 189z m114-241c-1 2-5 4-10 7c-6 2-33 16-38 17c-5 2-9 3-13-2c-3-6-14-18-17-22c-3-4-7-4-12-1c-6 3-24 8-45 27c-16 15-27 33-31 38c-3 6 0 9 3 11c2 3 5 7 8 10c3 3 4 6 6 9c2 4 1 7-1 10c-1 3-12 30-17 41c-4 11-9 9-12 9c-4 0-7 0-11 0c-4 0-10-1-15-7c-5-5-19-18-19-45c0-28 20-54 22-57c3-4 39-61 95-83c57-22 57-15 67-14c10 1 33 13 37 26c5 13 5 24 3 26z"/>
<glyph unicode="&#57384;" d="m26 210c0-16 7-30 18-39l0 78c-11-10-18-24-18-39m37 49l0-98c5-2 10-2 15-2l5 0l0 102c-2 0-4 0-5 0c-5 0-10-1-15-2m43-6c-1 0-3 1-4 2l0-96l19 0l0 128c-8-10-13-22-15-34m34 52l0-146l20 0l0 156c-7-2-14-6-20-10m39 14l0-160l19 0l0 159c-4 1-8 1-12 1c-2 0-5 0-7 0m49-11c-6 3-13 6-20 8l0-157l29 0l0 160c-3-3-6-7-9-11m19 21l0-170l183 0l0 0c39 2 56 26 56 56c0 31-23 56-54 56c-8 0-15-2-22-5c-5 49-47 87-98 87c-25 0-48-9-65-24"/>
<glyph unicode="&#57386;" d="m370 141l-114 0c-16 0-29 5-40 16c-11 12-17 25-17 41l0 40l162 0c15 0 28 6 38 16c11 11 16 23 16 38c0 14-5 27-16 37c-10 11-23 16-38 16l-162 0l0 84c0 16-5 29-16 40c-12 12-25 17-41 17c-16 0-30-5-41-16c-11-11-17-25-17-41l0-231c0-48 17-88 51-122c33-34 74-50 121-50l114 0c16 0 29 5 41 17c11 11 17 24 17 40c0 16-6 30-17 41c-12 11-25 17-41 17z"/>
<glyph unicode="&#57385;" d="m486 191c0-50-40-91-90-91l-280 0c-50 0-90 41-90 91c0 45 33 83 76 90c-1 3-1 6-1 10c0 32 26 58 57 58c14 0 27-6 37-14c18 40 41 77 105 77c78 0 114-60 114-124c0-2 0-5 0-8c41-8 72-45 72-89z"/>
<glyph unicode="&#57387;" d="m439 356l-36-77l-33 77l-51 0l9-17c-5 0-10 1-16 1c-14 0-25-3-33-9c-9-5-14-16-14-31l35 0c0 10 1 20 14 20c13 0 14-8 14-19l0-10c-20 0-40 0-52-10c-6 5-13 8-23 8c-13 0-22-3-29-14l-1 0l0 67l-35 0l0-61c-5 3-12 5-19 6c-13 3-29 5-49 5c-85 0-94-27-94-58c0-35 10-60 94-60c19 0 36 2 49 5c7 1 14 4 19 6l0-26l34 0l0 14l0 0c7-13 16-17 30-17c30 0 35 27 36 50c2 0 5 0 8 0c16 0 26 6 33 19l1 0l2-17l33 0c-1 8-2 16-2 24l0 34l15-29l0-64l46 0l0 64l62 119z m-319-84c31 0 30-15 30-26l-59 0c0 9-1 26 29 26z m49-57l-21 0c0-10-5-21-28-21c-28 0-29 20-29 34l97 0l0-13l-19 0z m84 9c0-32-2-46-15-46c-13 0-15 14-15 46c0 26 0 43 15 43c15 0 15-17 15-43z m58 4c-12 0-14 11-14 20c0 23 14 21 31 23c0-14 4-43-17-43z"/>
<glyph unicode="&#57388;" d="m124 90l-1 0l3 0c1 0 2 0 3 0c2 0 3 0 4 0l231 0l0 0c2 0 3 0 5 0c65 0 117 53 117 118c0 65-52 118-117 118c-2 0-5 0-7 0c-10 55-58 96-115 96c-65 0-118-53-118-118c0-2 1-3 1-5c0 0 0 0-1 0c-57 0-103-47-103-105c0-55 43-101 98-104z"/>
<glyph unicode="&#57389;" d="m294 409c0-24-19-42-42-42c-23 0-42 18-42 42c0 23 19 42 42 42c23 0 42-19 42-42z m75-174l-28 105c0 0 0 0 0 0l0 2l0 0c-3 8-10 13-19 13c0 0 0 0 0 0l0 1l-132 0l0-1c-9 0-16-5-19-13l0 0l0-2c0 0 0 0 0 0l-28-105l0 0c0-1 0-2 0-3c0-10 8-18 17-18c8 0 14 5 17 12l0 0l21 76l0 0l0 0c0 3 3 5 5 5c3 0 5-2 6-5l0 0l0-1c0 0 0 0 0 0c0 0 0 0 0 0l0-1l-33-123c-1-1-1-2-1-3l0-1l0 0c0 0 0 0 0 0c0-5 4-10 9-10l25 0l0-81c0-11 9-21 20-21c12 0 21 10 21 21l0 81l12 0l0-81c0-11 9-21 20-21c12 0 21 10 21 21l0 81l25 0c5 0 9 5 9 10c0 0 0 0 0 0l0 0l0 1c0 1 0 2-1 3l-33 122l0 0c0 1 0 1 0 2c0 3 3 6 6 6c2 0 5-2 5-5l0 0l21-76l0 0c3-7 9-12 17-12c9 0 17 8 17 18c0 1 0 2 0 3z"/>
<glyph unicode="&#57390;" d="m440 389l-188 0c-10 12-20 25-23 28c-2 6-8 10-14 10l-75 0c-5 0-9-3-13-6l-25-32l-30 0c-16 0-28-13-28-28l0-248c0-15 12-28 28-28l368 0c16 0 28 13 28 28l0 248c0 15-12 28-28 28z m-22-201c0-1-1-2-1-2c-1-1-2-1-3-1l-45 0l0-45c0-1 0-2-1-3c0 0-1-1-2-1l-32 0c-1 0-1 1-2 1c-1 1-1 2-1 3l0 45l-45 0c-1 0-2 0-2 1c-1 0-1 1-1 2l0 31c0 2 1 4 3 4l45 0l0 45c0 2 1 3 3 3l32 0c2 0 3-1 3-3l0-45l45 0c2 0 4-2 4-4z"/>
<glyph unicode="&#57391;" d="m295 410c0-23-19-42-42-42c-24 0-43 19-43 42c0 23 19 42 43 42c23 0 42-19 42-42z m38-54l0 0l-152 0l0 0c-11 0-20-9-20-20l0 0l0-120l0 0c0-4 2-9 6-12c7-7 18-7 25 0c3 3 5 8 5 12l0 0l0 84l0 0c0 3 3 6 6 6c3 0 5-3 5-6l0 0l0-219c0-12 10-21 21-21c12 0 21 9 21 21l0 110l0 0c0 3 3 6 6 6c3 0 6-3 6-6l0 0l0-110c0-12 9-21 21-21c11 0 21 9 21 21l0 219c0 3 2 6 5 6c3 0 6-3 6-6l0-84l0 0c0-4 2-9 5-12c7-7 19-7 26 0c3 3 5 8 5 12l0 0l0 120c0 11-8 19-18 20z"/>
<glyph unicode="&#57392;" d="m157 411c0-23-19-42-43-42c-23 0-42 19-42 42c0 23 19 42 42 42c24 0 43-19 43-42z m38-54l0 0l-152 0l0 0c-11 0-20-8-20-19l0 0l0-120l0 0c0-5 2-10 5-13c7-7 19-7 25 0c4 3 6 8 6 13l0 0l0 83l0 0c0 3 2 6 5 6c3 0 6-3 6-6l0 0l0-219c0-12 9-21 21-21c11 0 21 9 21 21l0 110l0 0c0 3 2 6 6 6c3 0 5-3 5-6l1 0l0-110c0-12 9-21 20-21c12 0 21 9 21 21l0 219c0 3 3 6 6 6c3 0 6-3 6-6l0-83l0 0c0-5 2-10 5-13c7-7 18-7 25 0c4 3 5 8 5 13l0 0l0 120c0 10-7 18-17 19z m218 54c0-24-19-43-43-43c-23 0-42 19-42 43c0 23 19 42 42 42c24 0 43-19 43-42z m76-176l-28 106c0 0 0 0 0 0l-1 2l0 0c-3 8-10 14-19 14c0 0 0 0 0 0l0 0l-134 0l0 0c-9 0-16-6-19-14l0 0l0-2c0 0-1 0-1 0l-28-106l0 0c0-1 0-2 0-3c0-10 8-18 18-18c8 0 14 5 17 11l0 0l21 78l0 0l0 0c1 2 3 4 6 4c2 0 4-2 5-4l0 0l0-1c0 0 0 0 0 0c0-1 0-1 0-1l0-1l-33-124c-1-1-1-2-1-4l0 0l0 0c0 0 0 0 0 0c0-6 4-10 10-10l24 0l0-82c0-12 10-21 21-21c12 0 21 9 21 21l0 82l12 0l0-82c0-12 9-21 21-21c12 0 21 9 21 21l0 82l25 0c5 0 9 4 9 10c0 0 0 0 0 0l0 0l0 0c0 2 0 3-1 4l-33 124l0 0c0 1 0 1 0 2c0 3 2 5 6 5c2 0 4-2 5-4l0 0l21-78l0 0c3-6 9-11 17-11c10 0 18 8 18 18c0 1 0 2 0 3z"/>
<glyph unicode="&#57393;" d="m377 110l-33 0c-5 0-9-4-9-9l0 0l0-15l-208 0l0 241l91 0c5 0 9 4 9 9l0 90l108 0l0-105l0 0c0-5 4-9 9-9l33 0c5 0 9 4 9 9l0 0c0 0 0 0 0 0l0 127l0 0l0 21c0 4-4 8-9 8l-168 0l-133-132l0-302c0-4 4-8 9-8l292 0c5 0 9 4 9 8l0 13l0 0l0 45c0 5-4 9-9 9z m50 128l-40 0l0 40c0 5-4 8-9 8l-35 0c-5 0-9-3-9-8l0-40l-40 0c-5 0-9-4-9-9l0-36c0-4 4-8 9-8l40 0l0-40c0-5 4-9 9-9l35 0c5 0 9 4 9 9l0 40l40 0c5 0 9 4 9 8l0 36c0 5-4 9-9 9z"/>
<glyph unicode="&#57394;" d="m411 448l0 0l0 21c0 4-4 8-9 8l-168 0l-133-132l0-302c0-4 4-8 9-8l292 0c5 0 9 4 9 8l0 13l0 0z m-259-362l0 241l91 0c5 0 9 4 9 9l0 90l108 0l0-340z"/>
<glyph unicode="&#57395;" d="m432 309l-123 0l0 123c0 5-5 10-10 10l-86 0c-5 0-10-5-10-10l0-123l-123 0c-5 0-10-5-10-10l0-86c0-3 1-5 3-7c2-2 4-3 7-3l123 0l0-123c0-3 1-5 3-7c2-2 4-3 7-3l86 0c3 0 5 1 7 3c2 2 3 4 3 7l0 123l123 0c3 0 5 1 7 3c2 2 3 4 3 7l0 86c0 5-5 10-10 10z"/>
<glyph unicode="&#57396;" d="m256 448c-106 0-192-86-192-192c0-106 86-192 192-192c106 0 192 86 192 192c0 106-86 192-192 192z m0-333c-78 0-141 63-141 141c0 78 63 141 141 141c78 0 141-63 141-141c0-78-63-141-141-141z m84 146l0 0l-120 69l0 0c-1 0-2 1-3 1c-3 0-5-3-5-6c0 0 0 0 0-1l0 0l0-138l0 0c0-2 3-4 5-4c1 0 2 0 3 0l0 0l120 69l0 0c1 1 2 3 2 5c0 2-1 4-2 5z"/>
<glyph unicode="&#57361;" d="m309 332l0 0l10-10l0 0c0 0 0 0 1-1c22-22 31-53 25-82l41-41c22 53 12 116-31 159c0 0 0 0 0 0l0 0l-10 10l0 0c-6 4-13 4-18-1l0 0l-1 0c0 0 0 0 0 0c0 0 0 0 0 0l-16-16c0 0 0 0 0 0c0 0 0 0 0 0l-1-1l0 0c-4-5-4-12 0-17z m95 93c0 0 0 0-1 0l0 0l-9 10l-1 0c-5 4-13 4-18-1l0 0l-17-18l0 0c-4-5-4-12 0-17l0 0l1-1l9-9l0 0c0 0 0 0 0 0c57-57 70-142 39-212l37-37c50 91 37 208-40 285z m-123-45l0 0c-1 6-5 10-11 10c-2 0-4-1-5-2l0 0l-44-25l60-60l0 77z m-161-75l-74 0l0 0c0 0 0 0 0 0c-4 0-8-4-8-8l0-106c0-4 4-8 8-8c0 0 0 0 0 0l0 0l74 0l59-34l0 0l85-49c2-1 4-1 6-1c6 0 11 4 11 10c0 1 0 1 0 1l0 0l0 49l-152 151z m319-196l-331 331l0 0c0 0 0 0 0 0c-5 5-13 5-18 0c0 0 0-1 0-1l-18-18c0 0 0 0 0 0c-5-5-5-13 0-18l331-331l0 0c5-5 13-5 18 0l0 0l18 18c0 0 0 0 0 1c5 5 5 13 0 18c0 0 0 0 0 0z"/>
<glyph unicode="&#57397;" d="m453 290l-52 5c-4 12-9 25-15 36l33 41c4 4 4 11 0 15l-32 32c-3 2-5 3-8 3c-3 0-5-1-7-3l-41-33c-12 6-24 11-36 15l-5 52c-1 6-6 10-11 10l-46 0c-5 0-10-4-11-10l-5-52c-12-4-24-9-36-15l-41 33c-2 2-4 3-7 3c-3 0-5-1-8-3l-32-32c-4-4-4-11 0-15l33-41c-6-11-11-24-15-36l-52-5c-6-1-10-6-10-11l0-46c0-5 4-10 10-11l52-5c4-12 9-24 15-36l-33-41c-4-4-4-11 0-15l32-32c3-2 5-3 8-3c3 0 5 1 7 3l41 33c12-6 24-11 36-15l5-52c1-6 6-10 11-10l46 0c5 0 10 4 11 10l5 52c12 4 24 9 36 15l41-33c2-2 4-3 7-3c3 0 5 1 8 3l32 32c4 4 4 11 0 15l-33 41c6 12 11 24 15 36l52 5c6 1 10 6 10 11l0 46c0 5-4 10-10 11z m-197-95c-34 0-61 27-61 61c0 34 27 61 61 61c34 0 61-27 61-61c0-34-27-61-61-61z"/>
<glyph unicode="&#57398;" d="m442 392l-20-20l-19-19l-25-24c-13-1-26 4-36 13c-9 10-14 23-13 36l63 64c1 1 1 3 0 4c0 1 0 1-1 1l0 0c0 0 0 0 0 0c0 0 0 0 0 0c-14 6-29 10-45 10c-61 0-111-50-111-111c0-12 2-23 6-33l-116-116c-39-1-70-32-70-71c0-39 32-71 71-71c39 0 70 31 71 70l116 116c10-4 21-6 33-6c61 0 111 50 111 111c0 16-4 31-10 45c0 0 0 0 0 0c0 0 0 1 0 1l0 0c0 0-1 0-1 0c-1 1-3 1-4 0z m-286-266c0-16-14-29-30-29c-16 0-29 13-29 29c0 16 13 30 29 30c16 0 30-14 30-30z"/>
<glyph unicode="&#57399;" d="m348 206l-50 50l50 50c3 2 3 5 0 7l-35 35c-2 3-5 3-7 0l-50-50l-50 50c-2 2-5 2-7 0l-35-35c-1-1-2-2-2-3c0-2 1-3 2-4l50-50l-50-50c-1-1-2-2-2-4c0-1 1-2 2-3l35-35c1-1 2-2 3-2c2 0 3 1 4 2l50 50l50-50c1-1 2-2 4-2c1 0 2 1 3 2l35 35c3 2 3 5 0 7z m-92 191c78 0 141-63 141-141c0-78-63-141-141-141c-78 0-141 63-141 141c0 78 63 141 141 141m0 51c-106 0-192-86-192-192c0-106 86-192 192-192c106 0 192 86 192 192c0 106-86 192-192 192z"/>
<glyph unicode="&#57400;" d="m291 459c-91 0-164-74-164-164c0-31 8-60 23-85l-79-79l0 0c-8-8-14-20-14-33c0-25 21-45 46-45c12 0 24 5 32 14l0 0l82 81c22-11 47-17 74-17c90 0 164 73 164 164c0 90-74 164-164 164z m1-263c-57 0-103 45-103 102c0 56 46 102 103 102c56 0 102-46 102-102c0-57-46-102-102-102z m60 126l0 0l-36 0l0 36c0 5-4 8-8 8c0 0-1 0-1 0l-31 0c0 0 0 0 0 0c-5 0-8-3-8-8c0 0 0 0 0-1l0-35l-37 0c-4 0-8-4-8-8l0-32c0-5 4-8 8-8c1 0 1 0 1 0l36 0l-1-36l1 0c0 0 0 0 0 0c0-5 3-8 8-8c0 0 0 0 0 0l0 0l32 0l0 0c4 0 8 3 8 8l0 0l0 36l36 0l0 0c0 0 0 0 0 0c4 0 8 3 8 8l0 32c0 4-4 8-8 8z"/>
<glyph unicode="&#57401;" d="m291 459c-91 0-164-74-164-164c0-31 8-60 23-85l-79-79l0 0c-8-8-14-20-14-33c0-25 21-45 46-45c12 0 24 5 32 14l0 0l82 81c22-11 47-17 74-17c90 0 164 73 164 164c0 90-74 164-164 164z m1-263c-57 0-103 45-103 102c0 56 46 102 103 102c56 0 102-46 102-102c0-57-46-102-102-102z m60 126l-121 0c-4 0-8-4-8-8l0-32c0-5 4-8 8-8l121 0c4 0 8 3 8 8l0 32c0 4-4 8-8 8z"/>
<glyph unicode="&#57402;" d="m388 341l-264 0c-7 0-12-5-12-12l0-256c0-6 5-12 12-12l264 0c7 0 12 6 12 12l0 256c0 7-5 12-12 12z m17 82l-101 0l0 16c0 6-5 12-12 12l-72 0c-7 0-12-6-12-12l0-16l-100 0c-7 0-13-5-13-12l0-35c0-7 6-13 13-13l297 0c6 0 12 6 12 13l0 35c0 7-6 12-12 12z"/>
<glyph unicode="&#57403;" d="m420 279l-209 0l0 54c0 27 23 48 50 48c28 0 50-21 50-48c0-5 4-10 10-10l51 0c0 0 1 0 1 0c5 0 10 5 10 10c0 1 0 2-1 2c-1 64-55 116-121 116c-67 0-121-53-121-118l0-54l-48 0c-8 0-14-6-14-13l0-192c0-7 6-13 14-13l328 0c8 0 14 6 14 13l0 192c0 7-6 13-14 13z"/>
<glyph unicode="&#57404;" d="m440 258l-93 0c-12 0-22-7-25-17c-10-28-36-46-66-46c-30 0-56 18-66 46c-3 10-13 17-25 17l-93 0c-14 0-26-11-26-25l0-144c0-14 12-25 26-25l368 0c14 0 26 11 26 25l0 144c0 14-12 25-26 25z m-257 79l34 0l0-88c0-4 4-7 7-7l64 0c3 0 7 3 7 7l0 88l34 0c2 0 5 1 6 3c1 2 1 5-1 7l-73 98c-1 2-3 3-5 3l0 0c-3 0-5-1-6-3l-72-98c-2-2-2-5-1-7c1-2 4-3 6-3z"/>
<glyph unicode="&#57405;" d="m407 323c-18 67-74 113-139 113c-45 0-88-22-115-61c-8 2-15 3-23 3c-61 0-110-54-110-121c0-24 6-47 18-66c3-5 8-8 13-8l102 0c1 48 39 86 87 86c47 0 86-38 87-86l138 0c5 0 9 3 12 7c10 15 15 32 15 50c0 49-40 89-85 83z m-113-171l-51 71c-1 1-3 2-4 2l0 0c-2 0-3-1-4-2l-51-71c-1-2-1-4 0-5c1-2 3-3 4-3l24 0l0-64c0-2 2-4 5-4l44 0c3 0 5 2 5 4l0 64l24 0c1 0 3 1 4 3c1 1 1 3 0 5z"/>
<glyph unicode="&#57406;" d="m339 198l0-54c0-13-10-23-23-23l-242 0c-12 0-23 10-23 23l0 224c0 13 11 23 23 23l242 0c13 0 23-10 23-23l0-53l0 0l122 57l0-232z"/>
<glyph unicode="&#57407;" d="m435 152c-1 6-4 10-9 13l-74 43l0 0c-3 2-7 3-10 3c-6 0-12-3-16-7l-22-21c-1-1-4-2-5-3c0 0-25 2-71 48c-46 46-48 71-48 71c0 1 2 4 3 5l18 19c7 6 8 17 5 26l-41 76c-3 6-9 10-15 10c-5 0-9-2-13-5l-50-50c-5-5-9-14-10-20c0-4-9-81 97-186c89-90 159-97 179-97c4 0 6 0 7 0c6 1 15 5 20 10l50 50c4 5 6 10 5 15z"/>
<glyph unicode="&#57408;" d="m430 109c0 0 0 0 0 0l0 0l-349 0l0 0c-8-1-14-7-14-16c0-8 6-15 14-15l0 0l349 0l0 0c0 0 0 0 0 0c9 0 15 7 15 15c0 9-6 16-15 16z m-300 35l29 0c6 0 11 4 13 9l17 47l133 0l19-48l0 0c2-4 6-7 11-8l0 0l29 0l0 0c0 0 1 0 1 0c7 0 13 6 13 13c0 2 0 3 0 4l0 0l-1 1c0 0 0 1 0 1l-103 262l0 0c-2 5-7 9-12 9l-46 0c-6 0-11-4-12-9l-104-263l0 0c0-2 0-3 0-5c0-7 6-13 13-13z m126 239l52-138l-104 0z"/>
<glyph unicode="&#57409;" d="m155 422l-54 0c-6 0-11-5-11-11l0-54c0-6 5-12 11-12l54 0c6 0 12 6 12 12l0 54c0 6-6 11-12 11z m128 0l-54 0c-6 0-11-5-11-11l0-54c0-6 5-12 11-12l54 0c6 0 11 6 11 12l0 54c0 6-5 11-11 11z m139-11c0 6-5 11-11 11l-54 0c-6 0-12-5-12-11l0-54c0 0 0 0 0 0c0-6 6-12 12-12l54 0c6 0 11 6 11 12l0 54z m-267-117l-54 0c-6 0-11-5-11-11l0-54c0-6 5-11 11-11l54 0c6 0 12 5 12 11l0 54c0 6-6 11-12 11z m128 0l-54 0c-6 0-11-5-11-11l0-54c0-6 5-11 11-11l54 0c6 0 11 5 11 11l0 54c0 6-5 11-11 11z m128 0l-54 0c-6 0-12-5-12-11l0-54c0 0 0 0 0 0c0-6 6-11 12-11l54 0c6 0 11 5 11 11l0 54c0 6-5 11-11 11z m-256-127l-54 0c-6 0-11-6-11-12l0-54c0-6 5-11 11-11l54 0c6 0 12 5 12 11l0 54c0 6-6 12-12 12z m128 0l-54 0c-6 0-11-6-11-12l0-54c0-6 5-11 11-11l54 0c6 0 11 5 11 11l0 54c0 6-5 12-11 12z m128 0l-54 0c-6 0-12-6-12-12l0-54c0-6 6-11 12-11l54 0c6 0 11 5 11 11l0 54c0 6-5 12-11 12z"/>
<glyph unicode="&#57410;" d="m410 203l-80 38l-34 16c15 9 27 24 35 41c6 14 10 29 10 46c0 9-1 18-4 27c-10 41-42 72-81 72c-38 0-70-30-81-70c-2-9-4-19-4-29c0-18 4-34 11-49c8-16 20-30 35-39l-32-15l-83-38c-7-4-12-12-12-21l0-91c0-12 8-22 19-22l294 0c11 0 19 10 19 22l0 91c0 9-4 17-12 21z"/>
<glyph unicode="&#57411;" d="m207 257c4 3 9 7 13 11c-14 20-22 46-22 72c0 18 3 35 10 51c-10 6-21 10-33 10c-36 0-66-34-66-77c0-29 15-55 36-68l-90-41c-5-3-9-9-9-16l0-71c0-9 7-17 15-17l59 0l0 74c0 19 11 37 27 44z m248-52l-77 36l-33 16c14 9 26 23 33 39c6 14 10 28 10 44c0 9-2 18-3 26c-10 40-41 69-79 69c-36 0-67-28-77-67c-3-9-4-18-4-28c0-17 4-32 11-46c7-16 19-29 33-38l-31-14l-80-37c-7-3-11-11-11-20l0-87c0-12 8-21 18-21l283 0c10 0 18 9 18 21l0 87c0 9-5 16-11 20z"/>
<glyph unicode="&#57412;" d="m492 217l-83 40c20 12 33 36 33 63c0 40-28 72-62 72c-12 0-23-4-32-11c6-14 9-29 9-46c0-24-7-48-20-67c4-5 9-9 15-12l0 0l53-25c15-8 25-24 25-41l0-70l57 0c7 0 14 7 14 16l0 66c0 7-4 13-9 15z m-330 40c4 3 8 6 12 10c-13 19-21 43-21 68c0 17 4 33 10 47c-10 6-20 10-31 10c-34 0-62-32-62-72c0-28 14-52 34-64l-84-39c-5-2-9-8-9-15l0-66c0-9 7-16 14-16l55 0l0 70c0 17 10 34 26 41z m232-49l-72 34l-31 15c14 8 25 21 32 37c5 12 9 26 9 41c0 9-2 17-4 24c-9 38-38 65-73 65c-34 0-63-26-73-63c-2-8-3-17-3-26c0-16 3-31 10-44c7-14 18-27 31-35l-29-13l-75-35c-6-3-10-10-10-18l0-82c0-11 7-20 17-20l264 0c10 0 18 9 18 20l0 82c0 8-5 15-11 18z"/>
<glyph unicode="&#57413;" d="m486 269l-38 0c-7 96-83 172-179 179l0 38c0 7-6 13-13 13c-7 0-13-6-13-13l0-38c-96-7-172-83-179-179l-38 0c-7 0-13-6-13-13c0-7 6-13 13-13l38 0c7-96 83-172 179-179l0-38c0-7 6-13 13-13c7 0 13 6 13 13l0 38c96 7 172 83 179 179l38 0c7 0 13 6 13 13c0 7-6 13-13 13z m-243-154c-67 7-121 61-128 128l26 0c6-53 49-96 102-102z m0 256c-53-6-96-49-102-102l-26 0c7 67 61 121 128 128l0-26z m26 26c67-7 121-61 128-128l-26 0c-6 53-49 96-102 102z m0-282l0 26c53 6 96 49 102 102l26 0c-7-67-61-121-128-128z"/>
<glyph unicode="&#57414;" d="m256 371c-64 0-116-51-116-115c0-64 52-115 116-115c64 0 115 51 115 115c0 64-51 115-115 115z m0-180c-36 0-65 29-65 65c0 36 29 65 65 65c36 0 64-29 64-65c0-36-28-65-64-65z m0 257c-106 0-192-86-192-192c0-106 86-192 192-192c106 0 192 86 192 192c0 106-86 192-192 192z m0-333c-78 0-141 63-141 141c0 78 63 141 141 141c78 0 141-63 141-141c0-78-63-141-141-141z m39 141c0-22-18-39-39-39c-22 0-39 17-39 39c0 22 17 39 39 39c21 0 39-17 39-39z"/>
<glyph unicode="&#57415;" d="m399 474c0 0 0 0-1 0l0 0l-286 0l0 0c-8 0-14-7-14-16l0-404c0-9 6-16 14-16l0 0l286 0l0 0c1 0 1 0 1 0c9 0 15 7 15 16l0 404c0 9-6 16-15 16z m-144-423c-7 0-12 6-12 13c0 7 5 12 12 12c7 0 13-5 13-12c0-7-6-13-13-13z m109 38l-216 0l0 334l216 0l0-334z"/>
<glyph unicode="&#57416;" d="m474 399c0 9-7 15-16 15l-404 0c-9 0-16-6-16-15c0 0 0 0 0-1l0 0l0-286l0 0c0-8 7-14 16-14l404 0c9 0 16 6 16 14l0 0l0 286l0 0c0 1 0 1 0 1z m-51-251l-334 0l0 216l334 0l0-216z m25 95c-7 0-12 5-12 12c0 7 5 13 12 13c7 0 13-6 13-13c0-7-6-12-13-12z"/>
<glyph unicode="&#57417;" d="m410 399c0 6-5 11-11 11c0 0 0 0-1 0l-284 0c0 0 0 0-1 0c-6 0-11-5-11-11c0-1 0-1 0-2l0-284l0 0c0 0 0 0 0 0c0-6 5-11 11-11c1 0 1 0 1 0l0 0l285 0l0 0c6 1 11 5 11 11l0 0z"/>
<glyph unicode="&#57418;" d="m469 308c-2 4-6 7-10 7l-144 0l-49 139c-2 4-6 7-10 7c-4 0-8-3-10-7l-49-139l-144 0c-4 0-8-3-10-7c-1-4 0-9 4-11l112-90l-50-142c-2-4 0-9 3-11c3-3 8-4 12-1l132 79l132-79c2-1 4-2 5-2c3 0 5 1 7 3c3 2 5 7 3 11l-50 142l112 90c4 2 5 7 4 11z"/>
<glyph unicode="&#57419;" d="m234 278c-12-12-12-32 0-44c12-12 32-12 44 0c12 12 12 32 0 44c-12 12-32 12-44 0z m158-171c82 82 82 216-1 298c0 0 0 0 0 0l0 0l-9 9l0 0c-5 4-11 3-16-1l0 0l0 0c0 0 0 0 0 0c0 0 0 0 0 0l-14-14c0 0 0 0 0 0c0 0 0 0 0 0l-1-1l0 0c-4-5-4-11 0-15l0-1l1-1l0 0l0 0l7-7l1 0c0 0 0 0 0 0c65-65 65-171 0-236l0 0l-7-7c0 0 0 0 0 0c0 0 0 0 0 0l-1-1l0-1c-4-4-4-11 1-16l0 0l0 0c0 0 0 0 0 0c0 0 0 0 0 0l7-7c0 0 0 0 0 0c0 0 0 0 0 0l7-7c0 0 0 0 0 0c0 0 0 0 0 0l1-1l0 0c4-3 11-3 15 0l0 0l8 8c0 0 0 0 0 0c0 0 0 0 0 0l1 1z m-60 59c49 50 49 130 0 179c0 1 0 1-1 1l0 0l-8 8l0 0c-5 4-12 4-16 0l0 0l-1 0c0 0 0 0 0 0c0 0 0-1 0-1l-14-14c0 0 0 0 0 0c0 0 0 0 0 0l-1-1l0 0c-3-4-3-11 0-15l0 0l1-1c0 0 0 0 0 0c0 0 0 0 0 0l8-8l0 0c0 0 0 0 0 0c32-32 33-84 1-116l0 0l-8-8c0 0 0 0 0 0c0 0 0 0 0 0l-1-1l0 0c-4-5-3-12 1-16l0 0l14-15l1-1l1 1c4-4 10-4 15 0l0-1l8 9l0 0z m-54 112c-12 12-32 12-44 0c-12-12-12-32 0-44c12-12 32-12 44 0c12 12 12 32 0 44z m-57-89l0 0l-1 1c0 0 0 0 0 0c0 0 0 0 0 0l-8 8l0 0c0 0 0 0 0 0c-32 32-33 84-1 116l0 0l9 9l0 0c4 5 3 12-1 16l0 0l-15 16l-1-1c-4 4-10 4-15 0l0 1l-1-1l-7-8l0 0c-49-50-49-130 0-179c0-1 0-1 1-1l0 0l8-8l0 0c5-4 12-4 16 0l0 0l1 0c0 0 0 1 0 1c0 0 0 0 0 0l14 14c0 0 0 0 0 0c0 0 0 0 0 0l1 1l0 0c3 4 3 11 0 15z m-60-60l0 1l-1 1c0 0 0 0 0 0c0 0 0 0 0 0l-7 7l-1 0c0 0 0 0 0 0c-65 65-65 171 0 236l0 0l7 7c0 0 0 0 0 0c0 0 0 1 0 1l1 0l0 1c4 4 4 11-1 16l1 0l-8 7c0 0 0 0 0 0c0 0 0 0 0 0l-8 8l0 0c-4 3-11 3-15 0l0 0l-9-9l0 0c-82-82-82-216 1-298c0 0 0 0 0 0l0 0l9-9l0 0c5-4 11-3 16 1l0 0l0 0l14 14c0 0 0 0 0 0c0 0 0 0 0 0l1 1l0 0c4 5 4 11 0 15z"/>
<glyph unicode="&#57420;" d="m256 456c-110 0-200-90-200-200c0-52 20-99 53-135c13 15 28 27 46 36c22 11 45 17 70 17c39 0 76-15 105-41c14-13 25-28 33-45c56 35 93 97 93 168c0 110-90 200-200 200z m95-278c-3-3-7-5-11-5c-3 0-6 1-8 2c-31 22-68 33-106 33c-22 0-44-4-64-11c-7-3-15 1-17 8c-3 7 1 14 8 17c23 9 48 13 73 13c44 0 85-13 121-38c6-4 8-12 4-19z m29 62c-3-5-8-7-13-7c-3 0-6 1-8 2c-40 25-86 38-133 38c-26 0-52-4-77-12c-8-2-16 2-19 10c-2 8 2 16 10 19c28 9 57 13 86 13c53 0 104-15 149-43c7-4 9-13 5-20z m14 53c-3 0-6 1-8 2c-48 29-104 44-160 44c-30 0-61-5-90-13c-8-3-18 2-20 11c-3 9 2 18 11 21c32 9 65 14 99 14c62 0 123-17 177-48c8-5 10-15 6-23c-3-5-9-8-15-8z m-113-213c-15 14-35 22-56 22c-13 0-26-3-38-9c-7-4-14-9-20-16c26-13 57-21 89-21c14 0 27 2 40 4c-4 8-9 14-15 20z"/>
<glyph unicode="&#79;" d="m269 93c0 4-1 8-2 12c-1 4-1 7-2 10c-1 3-3 7-5 10c-3 4-5 6-6 9c-2 2-5 5-8 8c-3 4-6 6-8 8c-2 1-5 4-9 7c-4 3-7 5-9 6c-1 2-5 4-9 7c-5 3-8 5-9 6c-3 0-8 1-14 1c-11 0-21-1-31-2c-9-2-20-4-30-8c-11-3-20-7-28-13c-8-5-15-12-20-21c-5-9-8-19-8-31c0-13 4-24 10-34c7-11 16-19 27-24c11-6 22-11 34-13c12-3 24-5 37-5c11 0 22 1 32 4c10 2 19 6 28 11c9 5 16 12 22 21c5 9 8 19 8 31z m-35 247c0 11-1 23-4 36c-4 13-8 25-14 37c-6 12-14 22-24 30c-10 8-21 12-34 12c-18 0-31-7-41-20c-10-13-15-29-15-47c0-9 1-18 4-28c2-10 5-20 10-30c4-10 10-19 16-27c6-8 13-14 22-19c9-5 18-7 28-7c18 0 32 5 40 17c8 11 12 27 12 46z m-37 135l125 0l-39-22l-38 0c13-9 24-21 31-36c7-16 11-32 11-48c0-15-2-27-6-38c-5-11-10-20-16-26c-7-7-13-13-19-19c-7-5-12-11-16-17c-5-6-7-13-7-20c0-5 2-9 5-14c3-5 7-9 12-14c5-4 11-9 17-14c6-4 12-10 18-15c6-6 12-13 17-19c5-7 9-15 12-25c3-9 5-19 5-30c0-30-13-57-40-81c-29-25-69-37-120-37c-11 0-23 1-34 3c-12 2-23 5-35 9c-12 5-22 10-31 17c-9 7-16 15-22 25c-6 11-9 22-9 35c0 12 4 25 11 39c6 12 15 22 27 31c12 9 26 16 42 21c15 4 30 8 44 10c14 2 28 3 43 4c-12 16-18 30-18 42c0 3 0 5 0 7c1 2 1 4 2 6c0 1 1 3 2 6c1 2 1 4 2 6c-8-1-14-2-20-2c-29 0-53 10-73 28c-20 19-31 43-31 71c0 26 9 50 28 71c18 21 40 35 66 41c18 4 36 5 54 5z m297-73l0-36l-73 0l0-73l-37 0l0 73l-73 0l0 36l73 0l0 73l37 0l0-73z"/>
<glyph unicode="&#57421;" d="m256 451c-110 0-200-90-200-200c0-88 58-163 137-189c10-2 14 4 14 9c0 5-1 17-1 34c-55-12-67 27-67 27c-9 23-22 29-22 29c-18 13 1 12 1 12c20-1 31-20 31-20c18-31 47-22 58-17c2 13 7 22 13 27c-45 5-91 22-91 99c0 21 7 39 20 53c-2 5-9 25 2 53c0 0 17 5 55-21c16 5 33 7 50 7c17 0 34-2 50-7c38 26 55 21 55 21c11-28 4-48 2-53c13-14 20-32 20-53c0-77-46-94-91-99c7-6 14-18 14-37c0-27 0-48 0-55c0-5 3-11 13-9c80 26 137 101 137 189c0 110-90 200-200 200z"/>
<glyph unicode="&#57422;" d="m111 154c-12 0-22 4-30 12c-9 8-13 19-13 30l0 188c0 12 4 22 13 30c8 8 18 13 30 13l290 0c12 0 22-5 30-13c9-8 13-18 13-30l0-188c0-11-4-22-13-30c-8-8-18-12-30-12z m-9 230l0-188c0-2 1-4 3-6c2-1 4-2 6-2l290 0c2 0 4 1 6 2c2 2 3 4 3 6l0 188c0 2-1 4-3 6c-2 2-4 3-6 3l-290 0c-2 0-4-1-6-3c-2-2-3-4-3-6z m367-247l43 0l0-26c0-7-4-13-13-18c-8-5-18-8-30-8l-426 0c-12 0-22 3-30 8c-9 5-13 11-13 18l0 26z m-192-26c3 0 5 1 5 4c0 3-2 4-5 4l-42 0c-3 0-5-1-5-4c0-3 2-4 5-4z"/>
</font>
</defs>
</svg>
